Welcome Guest ( Log In | Register )

> Releases Upload / Добавление релизов

Добавить релиз тут / Click here to add release
Рекомендованные обменники / Recommended file shares

> Bütcher - Bestial Fükkin' Warmachine (2017), Old School Blackened Heavy/Speed Metal
post Jun 14 2019, 00:22:43
Post #1

Правь статус, ####!111
**************
Group: Металариец
Posts: 17,395
Releases: 11800
From: Г.Харьков
On Forums: 7 years 1 month
Thanks: 197446 time(s)
Unknown


(IMG:https://metalarea.org/images/audiocovers/2019_Jun/acov_tid322984_thumb.jpg)

*Artist: Bütcher
*Album: Bestial Fükkin' Warmachine
*Year: 2017
*Genre: Old School Blackened Heavy/Speed Metal
*Country: Belgium (IMG:https://metalarea.org/forum/style_images/flags/Belgium.png)
*Format: mp3@CBR320kbps
*Size: 73MB

Tracklist:
1. Thermonuklear Road Warrior 03:14
2. Bestial Fükkin' Warmachine 05:05
3. The Devil's Breath 03:34
4. Elektrik Exekutioner 05:08
5. Flight of the Nazgûl 02:01 instrumental
6. Karpathian Napalm 04:16
7. The Blakk Krusader 05:09
8. Speed Metal Attack 01:58
******************************
Total playing time: 30:25




Extended info
KK Ripper Guitars (lead)
See also: ex-Bones, ex-Witness the End (live), ex-Anxiety Disorder, ex-Slow Puncture
R Hellshrieker Vocals
See also: ex-Battalion, ex-Coprophagia
AH Wrathchylde Bass (2019-present)
See also: ex-Prematory (live), ex-Evil Invaders
LV Speedhämmer Drums (2019-present)
See also: Skelethal, Vorax Virosus, ex-Eyes of the Insane


Technical info
(IMG:https://metalarea.org/images/spectrogram/2019_Jun/6e800dab60b99db3862bbcdc7c29546f.png)
Input File: 04 Elektrik Exekutioner.mp3
Channels : 2
Sample Rate : 44100
Precision : 16-bit
Duration : 00:05:08.84 = 13619800 samples = 23162.9 CDDA sectors
File Size : 12.7M
Bit Rate : 329k
Sample Encoding: MPEG audio (layer I, II or III)
Comments :
Title=Elektrik Exekutioner
Artist=Bütcher
Album=Bestial Fükkin' Warmachine
Tracknumber=4
Year=2017



Register


Go to the top of the page
  Insert nick Quick quote
+Quote Post
 
Start new topic
Replies (1 - 3)
post Jun 14 2019, 10:31:09
Post #2

Три Литра
***
Group: Завсегдатай
Posts: 264
Releases: 4
On Forums: 12 years 2 months
Thanks: 211 time(s)
Russian Federation


По превью напомнили ранний Горгорот
Go to the top of the page
  Insert nick Quick quote
+Quote Post
post Jun 14 2019, 11:50:24
Post #3

Group: Подсевший
Posts: 24
Releases: 0
On Forums: 2 weeks 1 day
Thanks: 11 time(s)
Unknown


Хороший дебют получился у бельгийцев. Подобное башкотрясное музло рекомендуется поклонникам Destroyer 666, Midnight и тех же Nifelheim (IMG:style_emoticons/default/metaler.gif)
Go to the top of the page
  Insert nick Quick quote
+Quote Post
post Jun 14 2019, 12:12:56
Post #4
BAN
Banned till
Jun 19 2019, 16:30:31



Хороший альбом. Но это не точно.


Thanks:
(1) maoniu08,
Go to the top of the page
  Insert nick Quick quote
+Quote Post

Reply to this topicStart new topic
1 User(s) are reading this topic (1 Guests and 0 Anonymous Users)
0 Members:

 



- Lo-Fi Version Support form
Copyrights and abuse reports form
Time is now: 18th June 2019 - 19:05:38