Welcome Guest ( Log In | Register )

 
Reply to this topicStart new topic
> Path To Extinction - Path To Extinction [ep] (2014), Death Metal/Grind
post Jun 14 2019, 10:12:00
Post #1

Мегаманьяк
***********
Group: Металариец
Posts: 1,724
Releases: 146
From: Omsk, Siberia
On Forums: 10 years 6 months
Thanks: 3122 time(s)
Russian Federation


(IMG:http://metalarea.org/images/audiocovers/2019_Jun/acov_tid322986_thumb.jpg)

*Artist: Path To Extinction
*Album: Path To Extinction [ep]
*Year: 2014
*Genre: Death Metal/Grind
*Country: Canada (IMG:http://metalarea.org/forum/style_images/flags/Canada.png)
*Format: mp3@CBR320kbps
*Size: 47MB

Tracklist:
1. Decorated Demons 03:44
2. The Horseman 04:12
3. Indoctrination Of Filth 03:35
4. Unholy Retribution 04:01
5. Tyrannic Reign 04:27
******************************
Total playing time: 20:01




Extended info
Mike Ballard - guitar
Arjun Gill - guitar (Premonition [Sau], Wake [Can], ex-Moosifix)
Aaron Lang - bass (Plaguebringer [Can])
Kurtis Offet - vocals
Ted Reekie - drums (Sub-Atomic Chaos, Urheimat [Can] (live))


Technical info
(IMG:http://metalarea.org/images/spectrogram/2019_Jun/485e32a865678399e257dddfc62b3cc3.png)
Input File: 01 Decorated Demons.mp3
Channels : 2
Sample Rate : 44100
Precision : 16-bit
Duration : 00:03:44.06 = 9881222 samples = 16804.8 CDDA sectors
File Size : 9.10M
Bit Rate : 325k
Sample Encoding: MPEG audio (layer I, II or III)
Comments :
Title=Decorated Demons
Artist=Path to Extinction
Album=Path to Extinction
Tracknumber=1
Year=2014
Genre=Death Metal



Register


Go to the top of the page
  Insert nick Quick quote
+Quote Post

Reply to this topicStart new topic
1 User(s) are reading this topic (1 Guests and 0 Anonymous Users)
0 Members:

 



- Lo-Fi Version Support form
Copyrights and abuse reports form
Time is now: 21st September 2019 - 11:52:25