Welcome Guest ( Log In | Register )

 
Reply to this topicStart new topic
> Drowned - Where Dark And Light Divide... [demo] (1998), Death/Thrash Metal (D)
post Jun 14 2019, 10:24:43
Post #1

Подвал
**************
Group: Металариец
Posts: 13,599
Releases: 7706
From: Far East (Khabarovsk)
On Forums: 10 years 7 months
Thanks: 74503 time(s)
Russian Federation


(IMG:http://metalarea.org/images/audiocovers/2019_Jun/acov_tid322987_thumb.jpg)

*Artist: Drowned
*Album: Where Dark And Light Divide... [demo]
*Year: 1998
*Genre: Death/Thrash Metal
*Country: Brazil (IMG:http://metalarea.org/forum/style_images/flags/Brazil.png)
*Format: mp3@CBR192kbps
*Size: 11MB

Tracklist:
1. Learn To Obey 02:52
2. Words From The Pit 02:36
3. Where Dark And Light Divide... 02:44
******************************
Total playing time: 8:12



Technical info
(IMG:http://metalarea.org/images/spectrogram/2019_Jun/fc6c4f54babc60e04705ea89e8c7dd4f.png)
Input File: 01-Learn To Obey.mp3
Channels : 2
Sample Rate : 44100
Precision : 16-bit
Duration : 00:02:52.76 = 7618628 samples = 12956.9 CDDA sectors
File Size : 4.15M
Bit Rate : 192k
Sample Encoding: MPEG audio (layer I, II or III)
Comments :
Title=Learn To Obey
Artist=Drowned
Album=Where Dark And Light Divide (Demo)
Tracknumber=01
Year=1999
Genre=Death Metal



Register


Go to the top of the page
  Insert nick Quick quote
+Quote Post

Reply to this topicStart new topic
1 User(s) are reading this topic (1 Guests and 0 Anonymous Users)
0 Members:

 



- Lo-Fi Version Support form
Copyrights and abuse reports form
Time is now: 21st September 2019 - 12:11:04