Welcome Guest ( Log In | Register )

 
Reply to this topicStart new topic
> Arsenic - Toxic Death (1995), Death Metal (D12)
post Jun 14 2019, 10:47:09
Post #1

Подвал
**************
Group: Металариец
Posts: 13,470
Releases: 7634
From: Far East (Khabarovsk)
On Forums: 10 years 4 months
Thanks: 72922 time(s)
Russian Federation


(IMG:http://metalarea.org/images/audiocovers/2019_Jun/acov_tid322988_thumb.jpg)

*Artist: Arsenic
*Album: Toxic Death
*Year: 1995
*Genre: Death Metal
*Country: France (IMG:http://metalarea.org/forum/style_images/flags/France.png)
*Format: mp3@CBR192kbps
*Size: 53MB

Tracklist:
1. Crucifiction 04:17
2. Contagious Blood 03:25
3. Fortress Of Slaught 03:26
4. Prisonner 03:36
5. Toxic Death 04:51
6. Coroner 03:40
7. Unreal Life 03:40
8. Revenge 03:39
9. Mortuary Blessing 03:22
10. Promotory Of The Violence 05:28
******************************
Total playing time: 39:24

(IMG:http://metalarea.org/images/youtube.png)

Extended info
Recorded and mixed at Eibon Prod Studio.
Produced by Arsenic.
Co-produced by Eibon Prod.


Technical info
(IMG:http://metalarea.org/images/spectrogram/2019_Jun/ada54bc235149c9f5877632c9c26621b.png)
Input File: 01-Crucifiction.mp3
Channels : 2
Sample Rate : 44100
Precision : 16-bit
Duration : 00:04:17.84 = 11370788 samples = 19338.1 CDDA sectors
File Size : 6.19M
Bit Rate : 192k
Sample Encoding: MPEG audio (layer I, II or III)
Comments :
Title=Crucifiction
Artist=Arsenic (Fra)
Album=Toxic Death
Tracknumber=01
Year=1995
Genre=Metal



Register


Go to the top of the page
  Insert nick Quick quote
+Quote Post

Reply to this topicStart new topic
1 User(s) are reading this topic (1 Guests and 0 Anonymous Users)
0 Members:

 



- Lo-Fi Version Support form
Copyrights and abuse reports form
Time is now: 18th June 2019 - 17:39:33