Welcome Guest ( Log In | Register )

 
Reply to this topicStart new topic
> Apoplex - The Rest Is Banana [demo] (1991), Thrash Metal
post Jun 14 2019, 11:12:33
Post #1

Подвал
**************
Group: Металариец
Posts: 13,599
Releases: 7706
From: Far East (Khabarovsk)
On Forums: 10 years 7 months
Thanks: 74503 time(s)
Russian Federation


(IMG:http://metalarea.org/images/audiocovers/2019_Jun/acov_tid322989_thumb.png)

*Artist: Apoplex
*Album: The Rest Is Banana [demo]
*Year: 1991
*Genre: Thrash Metal
*Country: Germany (IMG:http://metalarea.org/forum/style_images/flags/Germany.png)
*Format: mp3@CBR128kbps (IMG:http://metalarea.org/images/bit_low.gif)
*Size: 22MB

Tracklist:
1. Intro 01:10
2. The Rest Is Silence 05:45
3. The Stand 05:07
4. Epileptic Dance 03:20
5. Another 1000 Years 04:18
6. Trashburning 04:12
******************************
Total playing time: 23:52

Technical info
(IMG:http://metalarea.org/images/spectrogram/2019_Jun/0b8f03f8fc05d12cedb833575ecb0d84.png)
Input File: 02-The Rest Is Silence.mp3
Channels : 2
Sample Rate : 44100
Precision : 16-bit
Duration : 00:05:45.82 = 15250486 samples = 25936.2 CDDA sectors
File Size : 5.52M
Bit Rate : 128k
Sample Encoding: MPEG audio (layer I, II or III)
Comments :
Title=The Rest Is Silence
Artist=Apoplex
Album=The Rest Is Banana (Demo)
Tracknumber=02
Year=1991
Genre=Thrash Metal



Register


Go to the top of the page
  Insert nick Quick quote
+Quote Post

Reply to this topicStart new topic
1 User(s) are reading this topic (1 Guests and 0 Anonymous Users)
0 Members:

 



- Lo-Fi Version Support form
Copyrights and abuse reports form
Time is now: 21st September 2019 - 12:18:50