Welcome Guest ( Log In | Register )

 
Reply to this topicStart new topic
> Necroart - Dead Roses Parade [demo] (2002), Melodic Death Metal (D5)
post Jun 14 2019, 11:29:19
Post #1

Подвал
**************
Group: Металариец
Posts: 13,599
Releases: 7706
From: Far East (Khabarovsk)
On Forums: 10 years 7 months
Thanks: 74503 time(s)
Russian Federation


(IMG:http://metalarea.org/images/audiocovers/2019_Jun/acov_tid322990_thumb.jpg)

*Artist: Necroart
*Album: Dead Roses Parade [demo]
*Year: 2002
*Genre: Melodic Death Metal
*Country: Italy (IMG:http://metalarea.org/forum/style_images/flags/Italy.png)
*Format: mp3@CBR192kbps
*Size: 28MB

Tracklist:
1. Suicidal Karma 05:27
2. Dead Roses Parade 04:21
3. One Night Till The End 03:39
4. Black Bleeding Light 04:40
5. Denied By Joy 02:30
******************************
Total playing time: 20:37




Technical info
(IMG:http://metalarea.org/images/spectrogram/2019_Jun/6eb2bb2270d6ccf4449b977a31adfbab.png)
Input File: 01-Suicidal Karma.mp3
Channels : 2
Sample Rate : 44100
Precision : 16-bit
Duration : 00:05:27.67 = 14450203 samples = 24575.2 CDDA sectors
File Size : 7.86M
Bit Rate : 192k
Sample Encoding: MPEG audio (layer I, II or III)
Comments :
Title=Suicidal Karma
Artist=Necroart (Ita)
Album=Dead Roses Parade (Demo)
Tracknumber=01
Year=2002
Genre=Death Metal



Register


Go to the top of the page
  Insert nick Quick quote
+Quote Post

Reply to this topicStart new topic
1 User(s) are reading this topic (1 Guests and 0 Anonymous Users)
0 Members:

 



- Lo-Fi Version Support form
Copyrights and abuse reports form
Time is now: 21st September 2019 - 12:34:16