Welcome Guest ( Log In | Register )

 
Reply to this topicStart new topic
> Anonima Disastri - Mankind Disaster [demo] (2000), Death/Thrash Metal
post Jun 14 2019, 11:38:37
Post #1

Подвал
**************
Group: Металариец
Posts: 13,470
Releases: 7634
From: Far East (Khabarovsk)
On Forums: 10 years 4 months
Thanks: 72922 time(s)
Russian Federation


(IMG:http://metalarea.org/images/audiocovers/2019_Jun/acov_tid322991_thumb.jpg)

*Artist: Anonima Disastri
*Album: Mankind Disaster [demo]
*Year: 2000
*Genre: Death/Thrash Metal
*Country: Italy (IMG:http://metalarea.org/forum/style_images/flags/Italy.png)
*Format: mp3@CBR192kbps
*Size: 29MB

Tracklist:
1. Intro 02:14
2. K.K.K. 04:29
3. Antinews 03:59
4. Ulster 05:23
5. On The Edge Of Domination 05:48
******************************
Total playing time: 21:53

Extended info
Later renamed to Deforge.


Technical info
(IMG:http://metalarea.org/images/spectrogram/2019_Jun/756c66b88813a77ebd14cf573fe9c300.png)
Input File: 02-K.K.K..mp3
Channels : 2
Sample Rate : 44100
Precision : 16-bit
Duration : 00:04:29.44 = 11882304 samples = 20208 CDDA sectors
File Size : 6.47M
Bit Rate : 192k
Sample Encoding: MPEG audio (layer I, II or III)
Comments :
Title=K.K.K.
Artist=Anonima Disastri (Ita)
Album=Mankind Disaster (Demo)
Tracknumber=02
Year=2000
Genre=Death Metal



Register


Go to the top of the page
  Insert nick Quick quote
+Quote Post

Reply to this topicStart new topic
1 User(s) are reading this topic (1 Guests and 0 Anonymous Users)
0 Members:

 



- Lo-Fi Version Support form
Copyrights and abuse reports form
Time is now: 18th June 2019 - 18:03:46