Welcome Guest ( Log In | Register )

 
Reply to this topicStart new topic
> Pesticides - Demo '07 [demo] (2007), Death Metal
post Jun 14 2019, 11:53:13
Post #1

Подвал
**************
Group: Металариец
Posts: 13,470
Releases: 7634
From: Far East (Khabarovsk)
On Forums: 10 years 4 months
Thanks: 72923 time(s)
Russian Federation


(IMG:http://metalarea.org/images/audiocovers/2019_Jun/acov_tid322992_thumb.jpg)

*Artist: Pesticides
*Album: Demo '07 [demo]
*Year: 2007
*Genre: Death Metal
*Country: Germany (IMG:http://metalarea.org/forum/style_images/flags/Germany.png)
*Format: mp3@CBR320kbps
*Size: 46MB

Tracklist:
1. Intro 00:58
2. Call Into Darkness 05:34
3. Follow The Light 04:25
4. Path Of Thorns And Stones 06:25
5. Leper Ways 03:19
******************************
Total playing time: 20:41

(IMG:http://metalarea.org/images/myspace.png)

Extended info
Recorded while the band was still known as Cured Leper, but released under the name Pesticides.


Technical info
(IMG:http://metalarea.org/images/spectrogram/2019_Jun/74ad430d45b570de62047f194606179b.png)
Input File: 02-Call Into Darkness.mp3
Channels : 2
Sample Rate : 44100
Precision : 16-bit
Duration : 00:05:36.14 = 14823730 samples = 25210.4 CDDA sectors
File Size : 13.4M
Bit Rate : 320k
Sample Encoding: MPEG audio (layer I, II or III)
Comments :
Title=Call Into Darkness
Artist=Pesticides
Album=Demo 07
Tracknumber=02
Year=2007
Genre=Death Metal



Register


Thanks:
Go to the top of the page
  Insert nick Quick quote
+Quote Post

Reply to this topicStart new topic
1 User(s) are reading this topic (1 Guests and 0 Anonymous Users)
0 Members:

 



- Lo-Fi Version Support form
Copyrights and abuse reports form
Time is now: 18th June 2019 - 19:16:21