Welcome Guest ( Log In | Register )

> Panzerfaust - The Suns Of Perdition - Chapter I: War, Horrid War (2019), Black Metal
post Jun 14 2019, 12:53:04
Post #1

Девять Литров
*********
Group: Металариец
Posts: 994
Releases: 832
From: Новороссийск
On Forums: 8 years 4 months
Thanks: 14720 time(s)
Russian Federation


(IMG:https://metalarea.org/images/audiocovers/2019_Jun/acov_tid322993_thumb.jpg)

*Artist: Panzerfaust
*Album: The Suns Of Perdition - Chapter I: War, Horrid War
*Year: 2019
*Genre: Black Metal
*Country: Canada (IMG:https://metalarea.org/forum/style_images/flags/Canada.png)
*Format: mp3@CBR320kbps
*Size: 72MB

Tracklist:
01. The Day After 'Trinity' 05:23
02. Stalingrad, Massengrab 04:12
03. Crimes Against Humanity 02:24
04. The Decapitator's Prayer 06:27
05. The Men Of No Man's Land 13:00
******************************
Total playing time: 31:30




Technical info
(IMG:https://metalarea.org/images/spectrogram/2019_Jun/e4b3cf64ccb19d547e45f2111d3c325d.png)
Input File: 01. The Day After 'Trinity'.mp3
Channels : 2
Sample Rate : 44100
Precision : 16-bit
Duration : 00:05:23.85 = 14281697 samples = 24288.6 CDDA sectors
File Size : 13.0M
Bit Rate : 320k
Sample Encoding: MPEG audio (layer I, II or III)
Comments :
Title=The Day After 'Trinity'
Artist=Panzerfaust
Album=The Suns of Perdition, Ch. 1: War, Horrid War
Tracknumber=01
Year=2019
Genre=Black Metal



Register


Go to the top of the page
  Insert nick Quick quote
+Quote Post
 
Start new topic
Replies (1 - 4)
post Jun 14 2019, 14:26:52
Post #2

the faceless one
Group Icon
Group: S-moderation team
Posts: 9,229
Releases: 1885
On Forums: 11 years 1 month
Thanks: 111036 time(s)
Russian Federation


Прямой линк -
Register


Go to the top of the page
  Insert nick Quick quote
+Quote Post
post Jun 14 2019, 18:16:40
Post #3

Absorbence
***********
Group: Металариец
Posts: 1,689
Releases: 215
From: Vastland Abyss of Cthulhu
On Forums: 12 years 10 months
Thanks: 3712 time(s)
Canada


yeeeeeaahh!! finally, hope to see them again soon
Go to the top of the page
  Insert nick Quick quote
+Quote Post
post Jun 17 2019, 11:11:10
Post #4

Самый Тихий Час
**************
Group: Металариец
Posts: 5,764
Releases: 0
On Forums: 9 years 10 months
Thanks: 2591 time(s)
Unknown


Вот кто умело диссонансы использует а не разбрызгивает как златый дождь по ветру.


Thanks:
Go to the top of the page
  Insert nick Quick quote
+Quote Post
post Jul 7 2019, 10:59:50
Post #5

ы.
**************
Group: Металариец
Posts: 2,991
Releases: 0
On Forums: 3 years 7 months
Thanks: 1818 time(s)
Unknown


модная музыка какая то, не шарю.
но комментарий написать надо без базара.
диссонансы порадовали, бластбиты тоже, остальное что то как то, с эстетическипродвинутым налётом 21 века.
Go to the top of the page
  Insert nick Quick quote
+Quote Post

Reply to this topicStart new topic
1 User(s) are reading this topic (1 Guests and 0 Anonymous Users)
0 Members:

 



- Lo-Fi Version Support form
Copyrights and abuse reports form
Time is now: 21st September 2019 - 12:09:08