Welcome Guest ( Log In | Register )

> Releases Upload / Добавление релизов

Добавить релиз тут / Click here to add release
Рекомендованные обменники / Recommended file shares

 
Reply to this topicStart new topic
> Rebel - Sakálok Földjén (2019), Heavy/Power Metal
post Jun 14 2019, 13:03:38
Post #1

Serial Uploader
Group Icon
Group: V.I.P
Posts: 35,420
Releases: 33632
From: Lithuania
On Forums: 11 years 1 week
Thanks: 386071 time(s)
Lithuania


(IMG:https://metalarea.org/images/audiocovers/2019_Jun/acov_tid322994_thumb.png)

*Artist: Rebel
*Album: Sakálok Földjén
*Year: 2019
*Genre: Heavy/Power Metal
*Country: Hungary (IMG:https://metalarea.org/forum/style_images/flags/Hungary.png)
*Format: mp3@CBR320kbps
*Size: 84MB

Tracklist:
01. Világfa
02. Győztesek könnye
03. Angyal
04. Keresztek az égen
05. Vér, vas és becsület
06. Jég foglya
07. Szavak
08. Sakálok földjén
******************************
Total playing time: 36:29



(IMG:https://metalarea.org/images/youtube.png)

Technical info
(IMG:https://metalarea.org/images/spectrogram/2019_Jun/fd729b6c19a776bbcda319eca7490abb.png)
Input File: 02. Győztesek könnye.mp3
Channels : 2
Sample Rate : 44100
Precision : 16-bit
Duration : 00:04:47.39 = 12673987 samples = 21554.4 CDDA sectors
File Size : 11.7M
Bit Rate : 324k
Sample Encoding: MPEG audio (layer I, II or III)
Comments :
Title=Győztesek könnye
Artist=Rebel
Album=Sakálok földjén
Tracknumber=2
Year=2019
Genre=Heavy Metal
Discnumber=1



Register


Go to the top of the page
  Insert nick Quick quote
+Quote Post

Reply to this topicStart new topic
1 User(s) are reading this topic (1 Guests and 0 Anonymous Users)
0 Members:

 



- Lo-Fi Version Support form
Copyrights and abuse reports form
Time is now: 18th June 2019 - 17:39:23