Welcome Guest ( Log In | Register )

 
Reply to this topicStart new topic
> Apoplex - Straight To Zero [demo] (1993), Thrash Metal
post Jun 14 2019, 13:13:23
Post #1

Подвал
**************
Group: Металариец
Posts: 13,470
Releases: 7634
From: Far East (Khabarovsk)
On Forums: 10 years 4 months
Thanks: 72923 time(s)
Russian Federation


(IMG:http://metalarea.org/images/audiocovers/2019_Jun/acov_tid322995_thumb.png)

*Artist: Apoplex
*Album: Straight To Zero [demo]
*Year: 1993
*Genre: Thrash Metal
*Country: Germany (IMG:http://metalarea.org/forum/style_images/flags/Germany.png)
*Format: mp3@CBR128kbps (IMG:http://metalarea.org/images/bit_low.gif)
*Size: 24MB

Tracklist:
1. Vous Nous Faites Malade 03:43
2. My Heart Goes Off Beat 04:48
3. G.W.F.O. 05:03
4. Never The Less 06:22
5. One Whisper In The Silence 01:45
6. Seven 05:15
******************************
Total playing time: 26:56

Extended info
Thanx mr. Strappado for uploading this.


Technical info
(IMG:http://metalarea.org/images/spectrogram/2019_Jun/4596b07590d2ac76a28ab14f1ae0ee7c.png)
Input File: 01-Vous Nous Faites Malade.mp3
Channels : 2
Sample Rate : 44100
Precision : 16-bit
Duration : 00:03:43.96 = 9876416 samples = 16796.6 CDDA sectors
File Size : 3.58M
Bit Rate : 128k
Sample Encoding: MPEG audio (layer I, II or III)
Comments :
Title=Vous Nous Faites Malade
Artist=Apoplex
Album=Straight To Zero (Demo)
Tracknumber=01
Year=1993
Genre=Thrash Metal



Register


Go to the top of the page
  Insert nick Quick quote
+Quote Post

Reply to this topicStart new topic
1 User(s) are reading this topic (1 Guests and 0 Anonymous Users)
0 Members:

 



- Lo-Fi Version Support form
Copyrights and abuse reports form
Time is now: 18th June 2019 - 18:30:10