Welcome Guest ( Log In | Register )

> Releases Upload / Добавление релизов

Добавить релиз тут / Click here to add release
Рекомендованные обменники / Recommended file shares

 
Reply to this topicStart new topic
> Enemy X - Endless Circle (2019), Heavy/Groove Metal
post Jun 14 2019, 13:14:42
Post #1

Serial Uploader
Group Icon
Group: V.I.P
Posts: 35,420
Releases: 33632
From: Lithuania
On Forums: 11 years 1 week
Thanks: 386071 time(s)
Lithuania


(IMG:https://metalarea.org/images/audiocovers/2019_Jun/acov_tid322996_thumb.png)

*Artist: Enemy X
*Album: Endless Circle
*Year: 2019
*Genre: Heavy/Groove Metal
*Country: United States (IMG:https://metalarea.org/forum/style_images/flags/United%20States.png)
*Format: mp3@CBR320kbps
*Size: 80MB

Tracklist:
01. Worth Dying For
02. Endless Circle
03. Dying Light
04. High
05. Almost
06. Incomplete
07. Still We Rise
08. Bow Down
09. Wait For You
10. Last Dance
******************************
Total playing time: 34:48



(IMG:https://metalarea.org/images/youtube.png)

Technical info
(IMG:https://metalarea.org/images/spectrogram/2019_Jun/c7bd114d45c87e0f79b6d9466fe06044.png)
Input File: 02 - Endless Circle.mp3
Channels : 2
Sample Rate : 44100
Precision : 16-bit
Duration : 00:03:48.09 = 10058769 samples = 17106.8 CDDA sectors
File Size : 9.31M
Bit Rate : 327k
Sample Encoding: MPEG audio (layer I, II or III)
Comments :
Title=Endless Circle
Artist=Enemy X
Album=Endless Circle
Tracknumber=2
Year=2019
Genre=Heavy Metal
Discnumber=1



Register


Go to the top of the page
  Insert nick Quick quote
+Quote Post

Reply to this topicStart new topic
1 User(s) are reading this topic (1 Guests and 0 Anonymous Users)
0 Members:

 



- Lo-Fi Version Support form
Copyrights and abuse reports form
Time is now: 18th June 2019 - 17:39:59