Welcome Guest ( Log In | Register )

> Austpex - Austpex (2019), Melodic Death Metal
post Jun 14 2019, 13:24:31
Post #1

Serial Uploader
Group Icon
Group: V.I.P
Posts: 36,147
Releases: 34346
From: Lithuania
On Forums: 11 years 3 months
Thanks: 398460 time(s)
Lithuania


(IMG:https://metalarea.org/images/audiocovers/2019_Jun/acov_tid322997_thumb.png)

*Artist: Austpex
*Album: Austpex
*Year: 2019
*Genre: Melodic Death Metal
*Country: Chile (IMG:https://metalarea.org/forum/style_images/flags/Chile.png)
*Format: mp3@CBR320kbps
*Size: 87MB

Tracklist:
01. Circulo De Fuego
02. El Errante
03. En La Niebla
04. Lepper Faith
05. Manto Astral
06. Ruta Sin Rumbo
07. Vulture
08. El Paso Que Quema
******************************
Total playing time: 37:48

(IMG:https://metalarea.org/images/myspace.png)



Technical info
(IMG:https://metalarea.org/images/spectrogram/2019_Jun/c7bd114d45c87e0f79b6d9466fe06044.png)
Input File: 02 - Endless Circle.mp3
Channels : 2
Sample Rate : 44100
Precision : 16-bit
Duration : 00:03:48.09 = 10058769 samples = 17106.8 CDDA sectors
File Size : 9.31M
Bit Rate : 327k
Sample Encoding: MPEG audio (layer I, II or III)
Comments :
Title=Endless Circle
Artist=Enemy X
Album=Endless Circle
Tracknumber=2
Year=2019
Genre=Heavy Metal
Discnumber=1



Register


Go to the top of the page
  Insert nick Quick quote
+Quote Post
 
Start new topic
Replies (1 - 2)
post Jun 15 2019, 11:37:58
Post #2

hearer & reader
**************
Group: Металариец
Posts: 8,045
Releases: 104
From: Moscow
On Forums: 12 years 1 week
Thanks: 7527 time(s)
Russian Federation


Обложка левая.
Правая:
(IMG:https://i.ibb.co/Th9j9zC/Austpex.jpg) либо (IMG:https://i.ibb.co/Vjwn5MS/Austpex-2.jpg)
Go to the top of the page
  Insert nick Quick quote
+Quote Post
post Jun 15 2019, 22:07:21
Post #3

MDM-Thrash Metal
**************
Group: Металариец
Posts: 8,707
Releases: 606
From: Одесса
On Forums: 12 years 1 month
Thanks: 17456 time(s)
Ukraine


ЦИТАТА(AHBAnep @ Jun 15 2019, 13:37:58) *
Обложка левая.

Та и музыка тоже.
Go to the top of the page
  Insert nick Quick quote
+Quote Post

Reply to this topicStart new topic
1 User(s) are reading this topic (1 Guests and 0 Anonymous Users)
0 Members:

 



- Lo-Fi Version Support form
Copyrights and abuse reports form
Time is now: 21st September 2019 - 12:24:07