Welcome Guest ( Log In | Register )

> Releases Upload / Добавление релизов

Добавить релиз тут / Click here to add release
Рекомендованные обменники / Recommended file shares

> Arkhé Mortem - Origin Of Death (2019), Death Metal
post Jun 14 2019, 13:34:42
Post #1

Serial Uploader
Group Icon
Group: V.I.P
Posts: 35,420
Releases: 33632
From: Lithuania
On Forums: 11 years 1 week
Thanks: 386071 time(s)
Lithuania


(IMG:https://metalarea.org/images/audiocovers/2019_Jun/acov_tid322998_thumb.png)

*Artist: Arkhé Mortem
*Album: Origin Of Death
*Year: 2019
*Genre: Death Metal
*Country: Mexico (IMG:https://metalarea.org/forum/style_images/flags/Mexico.png)
*Format: mp3@CBR320kbps
*Size: 60MB

Tracklist:
01. Origin Of Death
02. Of Shoggoths
03. Eternal Cosmic Darkness
04. Osmotic Lysis
05. Invocation
06. Paths To Madness
07. Cryptum
******************************
Total playing time: 25:26


(IMG:https://metalarea.org/images/youtube.png)

Technical info
(IMG:https://metalarea.org/images/spectrogram/2019_Jun/863facba375bedac3a0bc32d4460506f.png)
Input File: 02 - Of Shoggoths.mp3
Channels : 2
Sample Rate : 44100
Precision : 16-bit
Duration : 00:02:54.41 = 7691305 samples = 13080.5 CDDA sectors
File Size : 7.12M
Bit Rate : 327k
Sample Encoding: MPEG audio (layer I, II or III)
Comments :
Title=Of Shoggoths
Artist=Arkhe Mortem
Album=Origin of Death
Tracknumber=2
Year=2019
Genre=Death Metal
Discnumber=1



Register


Go to the top of the page
  Insert nick Quick quote
+Quote Post
 
Start new topic
Replies (1 - 1)
post Jun 15 2019, 11:30:57
Post #2

hearer & reader
**************
Group: Металариец
Posts: 7,814
Releases: 103
From: Moscow
On Forums: 11 years 9 months
Thanks: 7331 time(s)
Russian Federation


гаражно-подвальное творчество
Go to the top of the page
  Insert nick Quick quote
+Quote Post

Reply to this topicStart new topic
1 User(s) are reading this topic (1 Guests and 0 Anonymous Users)
0 Members:

 



- Lo-Fi Version Support form
Copyrights and abuse reports form
Time is now: 18th June 2019 - 17:48:32