Welcome Guest ( Log In | Register )

> Releases Upload / Добавление релизов

Добавить релиз тут / Click here to add release
Рекомендованные обменники / Recommended file shares

> Aitvaras - Aitvaras (2019), Melodic Black Metal
post Jun 14 2019, 13:51:30
Post #1

Serial Uploader
Group Icon
Group: V.I.P
Posts: 35,420
Releases: 33632
From: Lithuania
On Forums: 11 years 1 week
Thanks: 386079 time(s)
Lithuania


(IMG:https://metalarea.org/images/audiocovers/2019_Jun/acov_tid323000_thumb.jpg)

*Artist: Aitvaras
*Album: Aitvaras
*Year: 2019
*Genre: Melodic Black Metal
*Country: Austria (IMG:https://metalarea.org/forum/style_images/flags/Austria.png)
*Format: mp3@CBR320kbps
*Size: 108MB

Tracklist:
01. Opus a Aitvaras 01:40
02. Coming from the Abyss 05:02
03. In Times of War 06:16
04. Pestkammer 07:47
05. Mourning Emptiness 08:48
06. Until Memories Fade 05:02
07. Verachtung 05:13
08. Paradise Denied 07:06
******************************
Total playing time: 46:54



Technical info
(IMG:https://metalarea.org/images/spectrogram/2019_Jun/7223627512515d2bacedf8424c167510.png)
Input File: 02. Coming from the Abyss.mp3
Channels : 2
Sample Rate : 44100
Precision : 16-bit
Duration : 00:05:02.23 = 13328343 samples = 22667.2 CDDA sectors
File Size : 12.2M
Bit Rate : 322k
Sample Encoding: MPEG audio (layer I, II or III)
Comments :
Title=Coming from the Abyss
Artist=Aitvaras
Album=Aitvaras
Tracknumber=2/8
Year=2019
Genre=Alternative/Indie
Discnumber=1/1



Register


Go to the top of the page
  Insert nick Quick quote
+Quote Post
 
Start new topic
Replies (1 - 3)
post Jun 15 2019, 11:15:09
Post #2

Правь статус, ####!111
**************
Group: Металариец
Posts: 2,446
Releases: 2
From: Dnipro
On Forums: 10 years 11 months
Thanks: 639 time(s)
Ukraine


Неплохо, но не совсем Melodic Black Metal
Go to the top of the page
  Insert nick Quick quote
+Quote Post
post Jun 15 2019, 11:23:09
Post #3
BAN
Banned till
Jun 19 2019, 16:30:31



Это что, блекеры-авиаторы? Они такие в смешных шапках достают свои этажерки и давай сбивать друг друга до трёх ночи, а потом как начнут мелодии играть, аж стены шатаются. И говорят постоянно, мол вот я от винта делаю и ты тоже так делай. Они ещё постоянно солярку какую-то пьют и потом в ангар по шесть раз приземляются.
Реальная история, я не ПВОшник.
Go to the top of the page
  Insert nick Quick quote
+Quote Post
post Jun 15 2019, 11:28:18
Post #4

hearer & reader
**************
Group: Металариец
Posts: 7,818
Releases: 103
From: Moscow
On Forums: 11 years 9 months
Thanks: 7331 time(s)
Russian Federation


мелоблэк вульгарис
- NYP
Go to the top of the page
  Insert nick Quick quote
+Quote Post

Reply to this topicStart new topic
1 User(s) are reading this topic (1 Guests and 0 Anonymous Users)
0 Members:

 



- Lo-Fi Version Support form
Copyrights and abuse reports form
Time is now: 18th June 2019 - 18:55:41