Welcome Guest ( Log In | Register )

 
Reply to this topicStart new topic
> Premature Burial - Antihuman (2019), Heavy/Thrash Metal
post Jun 14 2019, 14:01:40
Post #1

Serial Uploader
Group Icon
Group: V.I.P
Posts: 36,147
Releases: 34346
From: Lithuania
On Forums: 11 years 3 months
Thanks: 398460 time(s)
Lithuania


(IMG:https://metalarea.org/images/audiocovers/2019_Jun/acov_tid323001_thumb.jpg)

*Artist: Premature Burial
*Album: Antihuman
*Year: 2019
*Genre: Heavy/Thrash Metal
*Country: Spain (IMG:https://metalarea.org/forum/style_images/flags/Spain.png)
*Format: mp3@CBR320kbps
*Size: 107MB

Tracklist:
01. Back To Zero 03:23
02. Oceanic Burial Ground 05:50
03. Alpha Wolf In No Man's Land 04:55
04. Temperance I / Tombchild 05:36
05. Temperance II / Reptile Eyes 04:18
06. Condemned To The Twilight Zone 05:25
07. Creator And Destroyer 05:04
08. G'Mork Rising 05:21
09. The Grave Song 02:57
10. Seekers Of The Truth 03:59
******************************
Total playing time: 46:48


(IMG:https://metalarea.org/images/youtube.png)

Technical info
(IMG:https://metalarea.org/images/spectrogram/2019_Jun/6e2e07f645edac163f6db653b548e507.png)
Input File: 02 - Oceanic Burial Ground.mp3
Channels : 2
Sample Rate : 44100
Precision : 16-bit
Duration : 00:05:50.40 = 15452772 samples = 26280.2 CDDA sectors
File Size : 14.0M
Bit Rate : 320k
Sample Encoding: MPEG audio (layer I, II or III)
Comments :
Title=Oceanic Burial Ground
Artist=premature burial
Album=Antihuman
Tracknumber=2
Year=2019
Genre=Heavy Metal
Discnumber=1



Register


Go to the top of the page
  Insert nick Quick quote
+Quote Post

Reply to this topicStart new topic
1 User(s) are reading this topic (1 Guests and 0 Anonymous Users)
0 Members:

 



- Lo-Fi Version Support form
Copyrights and abuse reports form
Time is now: 21st September 2019 - 11:59:36