Welcome Guest ( Log In | Register )

> Grasping Veld - Voyager (2019), Sludge/Post-Black Metal
post Jun 14 2019, 14:11:29
Post #1

Serial Uploader
Group Icon
Group: V.I.P
Posts: 36,147
Releases: 34346
From: Lithuania
On Forums: 11 years 3 months
Thanks: 398460 time(s)
Lithuania


(IMG:https://metalarea.org/images/audiocovers/2019_Jun/acov_tid323002_thumb.jpg)

*Artist: Grasping Veld
*Album: Voyager
*Year: 2019
*Genre: Sludge/Post-Black Metal
*Country: Russian Federation (IMG:https://metalarea.org/forum/style_images/flags/Russian%20Federation.png)
*Format: mp3@CBR320kbps
*Size: 122MB

Tracklist:
01. Let's Wait Forever 04:21
02. Dissolution Point, Pt. 1 04:44
03. Dissolution Point, Pt. 2 04:06
04. Voyager 07:58
05. Threshold 08:46
06. Oceans of Jupiter 06:23
07. A Mere Satellite 07:29
08. The Sleep 09:37
******************************
Total playing time: 53:24


Preview 2

(IMG:https://metalarea.org/images/youtube.png)

Technical info
(IMG:https://metalarea.org/images/spectrogram/2019_Jun/6b6502f8151821cd43fa3d325b263dfc.png)
Input File: 2 - Dissolution Point, Pt. 1.mp3
Channels : 2
Sample Rate : 44100
Precision : 16-bit
Duration : 00:04:44.36 = 12540188 samples = 21326.9 CDDA sectors
File Size : 11.4M
Bit Rate : 321k
Sample Encoding: MPEG audio (layer I, II or III)
Comments :
Title=Dissolution Point, Pt. 1
Artist=Grasping Veld
Album=Voyager
Tracknumber=2
Year=2019
Genre=Metal
Discnumber=1



Register


Go to the top of the page
  Insert nick Quick quote
+Quote Post
 
Start new topic
Replies (1 - 1)
post Jun 15 2019, 05:57:38
Post #2

Пусто
**********
Group: Металариец
Posts: 1,428
Releases: 27
From: Санкт-Петербург
On Forums: 12 years 8 months
Thanks: 1411 time(s)
Russian Federation


средненький пост-метал с капелькой бластов
Go to the top of the page
  Insert nick Quick quote
+Quote Post

Reply to this topicStart new topic
1 User(s) are reading this topic (1 Guests and 0 Anonymous Users)
0 Members:

 



- Lo-Fi Version Support form
Copyrights and abuse reports form
Time is now: 21st September 2019 - 12:38:51