Welcome Guest ( Log In | Register )

> Releases Upload / Добавление релизов

Добавить релиз тут / Click here to add release
Рекомендованные обменники / Recommended file shares

> Dancing Sun - Firefable (2019), Experimental Metal
post Jun 14 2019, 14:18:55
Post #1

Serial Uploader
Group Icon
Group: V.I.P
Posts: 35,408
Releases: 33620
From: Lithuania
On Forums: 11 years 1 week
Thanks: 385928 time(s)
Lithuania


(IMG:https://metalarea.org/images/audiocovers/2019_Jun/acov_tid323003_thumb.jpg)

*Artist: Dancing Sun
*Album: Firefable
*Year: 2019
*Genre: Experimental Metal
*Country: Italy (IMG:https://metalarea.org/forum/style_images/flags/Italy.png)
*Format: mp3@CBR320kbps
*Size: 90MB

Tracklist:
01. Healing Silence
02. Dead Waters
03. Laszlo Podenco's Dreams
04. Firefable
05. Birds of Fire
06. Midas
07. Tree
08. Lotte's Song
******************************
Total playing time: 39:11

Technical info
(IMG:https://metalarea.org/images/spectrogram/2019_Jun/cb175ac9c7f3f6eaf7504193ffa4f33e.png)
Input File: 2 - Dead Waters.mp3
Channels : 2
Sample Rate : 44100
Precision : 16-bit
Duration : 00:06:07.80 = 16219892 samples = 27584.9 CDDA sectors
File Size : 14.7M
Bit Rate : 321k
Sample Encoding: MPEG audio (layer I, II or III)
Comments :
Title=Dead Waters
Artist=Dancing Sun
Album=Firefable
Tracknumber=2
Year=2019
Genre=Metal
Discnumber=1



Register


Go to the top of the page
  Insert nick Quick quote
+Quote Post
 
Start new topic
Replies (1 - 7)
post Yesterday, 06:30:29
Post #2

South Of Heaven /адепт ВУДУ
**************
Group: Металариец
Posts: 13,473
Releases: 7
On Forums: 9 years 2 months
Thanks: 4955 time(s)
Unknown




Thanks:
(1) AHBAnep,
Go to the top of the page
  Insert nick Quick quote
+Quote Post
post Yesterday, 07:30:25
Post #3

Три Литра
***
Group: Завсегдатай
Posts: 224
Releases: 0
On Forums: 3 weeks 17 hours
Thanks: 64 time(s)
Russian Federation


Пытался найти на ютубе что-нибудь от них. Нашёл вместо них вот это. И почему-то я уверен что это лучше.
https://www.youtube.com/watch?v=mp28JPs25ek
Go to the top of the page
  Insert nick Quick quote
+Quote Post
post Yesterday, 08:25:29
Post #4

South Of Heaven /адепт ВУДУ
**************
Group: Металариец
Posts: 13,473
Releases: 7
On Forums: 9 years 2 months
Thanks: 4955 time(s)
Unknown


ЦИТАТА(adeptus_custodes @ Jun 15 2019, 09:30:25) *
Пытался найти на ютубе что-нибудь от них.

https://www.youtube.com/results?search_quer...+Sun++Firefable

А вот ипишку и первый альбом от них не найти от слова совсем.
Go to the top of the page
  Insert nick Quick quote
+Quote Post
post Yesterday, 08:29:08
Post #5

Три Литра
***
Group: Завсегдатай
Posts: 224
Releases: 0
On Forums: 3 weeks 17 hours
Thanks: 64 time(s)
Russian Federation


Да, я был прав, мой видос по всем параметрам лучше группы.
А группец играет такой очень кривенький воршип позднего мастодона, а вокалом кое-где откровенно плохо пытается косить под Скотта Келли, точнее под его манеру исполнения в Неврозисе. Однозначный дизлайк и гордая плашка "экскрементал метал".


Thanks:
(1) AHBAnep,
Go to the top of the page
  Insert nick Quick quote
+Quote Post
post Yesterday, 08:44:55
Post #6

South Of Heaven /адепт ВУДУ
**************
Group: Металариец
Posts: 13,473
Releases: 7
On Forums: 9 years 2 months
Thanks: 4955 time(s)
Unknown


ЦИТАТА(adeptus_custodes @ Jun 15 2019, 10:29:08) *
Да, я был прав, мой видос по всем параметрам лучше группы.

Твой видос при попытке открыть ошибку выдаёт почему-то (IMG:style_emoticons/default/23.gif)
Go to the top of the page
  Insert nick Quick quote
+Quote Post
post Yesterday, 09:33:36
Post #7

Три Литра
***
Group: Завсегдатай
Posts: 224
Releases: 0
On Forums: 3 weeks 17 hours
Thanks: 64 time(s)
Russian Federation


Поправил
Go to the top of the page
  Insert nick Quick quote
+Quote Post
post Today, 05:20:22
Post #8

South Of Heaven /адепт ВУДУ
**************
Group: Металариец
Posts: 13,473
Releases: 7
On Forums: 9 years 2 months
Thanks: 4955 time(s)
Unknown


А мне таки понравилось.

Не скажу, что прямо вот Experimental и прямо вот Metal, necroscum тут слегка слукавил (IMG:style_emoticons/default/smile1.gif)

Жаль, что предыдущих творений не найти никак.
Go to the top of the page
  Insert nick Quick quote
+Quote Post

Reply to this topicStart new topic
1 User(s) are reading this topic (1 Guests and 0 Anonymous Users)
0 Members:

 



- Lo-Fi Version Support form
Copyrights and abuse reports form
Time is now: 16th June 2019 - 07:54:14