Welcome Guest ( Log In | Register )

> Releases Upload / Добавление релизов

Добавить релиз тут / Click here to add release
Рекомендованные обменники / Recommended file shares

 
Reply to this topicStart new topic
> A World In Grayscale - Galaxies Above (2019), Instrumental Post-Metal
post Jun 14 2019, 14:26:37
Post #1

Serial Uploader
Group Icon
Group: V.I.P
Posts: 35,408
Releases: 33620
From: Lithuania
On Forums: 11 years 1 week
Thanks: 385928 time(s)
Lithuania


(IMG:https://metalarea.org/images/audiocovers/2019_Jun/acov_tid323005_thumb.jpg)

*Artist: A World In Grayscale
*Album: Galaxies Above
*Year: 2019
*Genre: Instrumental Post-Metal
*Country: United States (IMG:https://metalarea.org/forum/style_images/flags/United%20States.png)
*Format: mp3@CBR320kbps
*Size: 111MB

Tracklist:
01. Universes Crumble 04:33
02. Crushed Bits 05:03
03. Empty Space 06:51
04. Kepler 08:08
05. The Law Of Decay 06:41
06. Polarization 06:16
07. (Faded) Into The Night 10:58
******************************
Total playing time: 48:30



Technical info
(IMG:https://metalarea.org/images/spectrogram/2019_Jun/4d4392f0dd4c94af16de2f07921d9354.png)
Input File: 2 - Crushed Bits.mp3
Channels : 2
Sample Rate : 44100
Precision : 16-bit
Duration : 00:05:03.43 = 13381219 samples = 22757.2 CDDA sectors
File Size : 12.2M
Bit Rate : 322k
Sample Encoding: MPEG audio (layer I, II or III)
Comments :
Title=Crushed Bits
Artist=A World In Grayscale
Album=Galaxies Above
Tracknumber=2
Year=2019
Genre=Rock/Metal
Discnumber=1



Register


Thanks:
Go to the top of the page
  Insert nick Quick quote
+Quote Post

Reply to this topicStart new topic
2 User(s) are reading this topic (2 Guests and 0 Anonymous Users)
0 Members:

 



- Lo-Fi Version Support form
Copyrights and abuse reports form
Time is now: 16th June 2019 - 08:03:30