Welcome Guest ( Log In | Register )

 
Reply to this topicStart new topic
> Cremisi - Dawn Of A New Era (2019), Symphonic Folk Metal
post Jun 14 2019, 14:34:36
Post #1

Serial Uploader
Group Icon
Group: V.I.P
Posts: 35,814
Releases: 34022
From: Lithuania
On Forums: 11 years 2 months
Thanks: 393152 time(s)
Lithuania


(IMG:https://metalarea.org/images/audiocovers/2019_Jun/acov_tid323006_thumb.jpg)

*Artist: Cremisi
*Album: Dawn Of A New Era
*Year: 2019
*Genre: Symphonic Folk Metal
*Country: Italy (IMG:https://metalarea.org/forum/style_images/flags/Italy.png)
*Format: mp3@CBR320kbps
*Size: 113MB

Tracklist:
01. Dark Winds
02. The Black Death
03. Dawn of a New Era
04. Captain's Log
05. Confession
06. In the Name of the Lord
07. Waves of Sorrow
08. Battle of Lepanto
09. The Hanged Man
10. On the Moon
******************************
Total playing time: 49:11




Technical info
(IMG:https://metalarea.org/images/spectrogram/2019_Jun/94241201ca2d9c34d03a04693eea598f.png)
Input File: 2 - The Black Death.mp3
Channels : 2
Sample Rate : 44100
Precision : 16-bit
Duration : 00:05:16.31 = 13949183 samples = 23723.1 CDDA sectors
File Size : 12.8M
Bit Rate : 323k
Sample Encoding: MPEG audio (layer I, II or III)
Comments :
Title=The Black Death
Artist=Cremisi
Album=Dawn of a New Era
Tracknumber=2
Year=2019
Genre=Metal
Discnumber=1



Register


Go to the top of the page
  Insert nick Quick quote
+Quote Post

Reply to this topicStart new topic
1 User(s) are reading this topic (1 Guests and 0 Anonymous Users)
0 Members:

 



- Lo-Fi Version Support form
Copyrights and abuse reports form
Time is now: 18th August 2019 - 22:04:22