Welcome Guest ( Log In | Register )

 
Reply to this topicStart new topic
> Carnifex - No Light Shall Save Us [single] (2019), Deathcore (D)
post Jun 14 2019, 14:48:02
Post #1

SHEMHAMFORASH
**************
Group: Металариец
Posts: 2,267
Releases: 846
From: Москва
On Forums: 13 years 4 months
Thanks: 8512 time(s)
Russian Federation


(IMG:https://metalarea.org/images/audiocovers/2019_Jun/acov_tid323007_thumb.jpg)

*Artist: Carnifex
*Album: No Light Shall Save Us [single]
*Year: 2019
*Genre: Deathcore
*Country: United States (IMG:https://metalarea.org/forum/style_images/flags/United%20States.png)
*Format: mp3@CBR320kbps
*Size: 11MB

Tracklist:
1. No Light Shall Save Us 4:49
******************************
Total playing time: 4:49

(IMG:https://metalarea.org/images/youtube.png)

Technical info
(IMG:https://metalarea.org/images/spectrogram/2019_Jun/6f55349f2d276b9d373af6be2cdea0c7.png)
Input File: Carnifex_-_No_Light_Shall_Save_Usfeaturing_Alissa_White-Gluz.mp3
Channels : 2
Sample Rate : 44100
Precision : 16-bit
Duration : 00:04:47.89 = 12695861 samples = 21591.6 CDDA sectors
File Size : 11.6M
Bit Rate : 322k
Sample Encoding: MPEG audio (layer I, II or III)
Comments :
Title=No Light Shall Save Us(featuring Alissa White-Gluz)
Artist=Carnifex



Register


Go to the top of the page
  Insert nick Quick quote
+Quote Post

Reply to this topicStart new topic
1 User(s) are reading this topic (1 Guests and 0 Anonymous Users)
0 Members:

 



- Lo-Fi Version Support form
Copyrights and abuse reports form
Time is now: 21st September 2019 - 12:21:07