Welcome Guest ( Log In | Register )

 
Reply to this topicStart new topic
> Dreamer N Fighters - The Fighters (2019), Heavy Metal
post Jun 14 2019, 14:51:16
Post #1

Serial Uploader
Group Icon
Group: V.I.P
Posts: 36,147
Releases: 34346
From: Lithuania
On Forums: 11 years 3 months
Thanks: 398459 time(s)
Lithuania


(IMG:https://metalarea.org/images/audiocovers/2019_Jun/acov_tid323008_thumb.jpg)

*Artist: Dreamer N Fighters
*Album: The Fighters
*Year: 2019
*Genre: Heavy Metal
*Country: Indonesia (IMG:https://metalarea.org/forum/style_images/flags/Indonesia.png)
*Format: mp3@CBR320kbps
*Size: 113MB

Tracklist:
01. The One
02. The Fighters
03. Intoxicated
04. Rebel Song
05. Damailah Dunia
06. Of My Revenge
07. Zombie Attack
08. Mechanical Human
09. The Silence
10. Buruh Song
11. The Last Goodbye
******************************
Total playing time: 49:12




Technical info
(IMG:https://metalarea.org/images/spectrogram/2019_Jun/72a20dbcbbffd6ec0b7c802f62e01d8d.png)
Input File: 2 - The Fighters.mp3
Channels : 2
Sample Rate : 44100
Precision : 16-bit
Duration : 00:05:04.60 = 13433036 samples = 22845.3 CDDA sectors
File Size : 12.3M
Bit Rate : 322k
Sample Encoding: MPEG audio (layer I, II or III)
Comments :
Title=The Fighters
Artist=Dreamer N Fighters
Album=The Fighters
Tracknumber=2
Year=2019
Genre=Rock/Hard Rock/Metal
Discnumber=1



Register


Go to the top of the page
  Insert nick Quick quote
+Quote Post

Reply to this topicStart new topic
1 User(s) are reading this topic (1 Guests and 0 Anonymous Users)
0 Members:

 



- Lo-Fi Version Support form
Copyrights and abuse reports form
Time is now: 21st September 2019 - 11:53:47