Welcome Guest ( Log In | Register )

> Gorslava - Chromatic Ritual Magic (2019), Occult Doom Metal
post Jun 14 2019, 14:58:02
Post #1

Serial Uploader
Group Icon
Group: V.I.P
Posts: 35,814
Releases: 34022
From: Lithuania
On Forums: 11 years 2 months
Thanks: 393154 time(s)
Lithuania


(IMG:https://metalarea.org/images/audiocovers/2019_Jun/acov_tid323009_thumb.jpg)

*Artist: Gorslava
*Album: Chromatic Ritual Magic
*Year: 2019
*Genre: Occult Doom Metal
*Country: United States (IMG:https://metalarea.org/forum/style_images/flags/United%20States.png)
*Format: mp3@CBR320kbps
*Size: 100MB

Tracklist:
01. Incarnadine 04:19
02. Eau de Nil 04:43
03. Glaucous 05:26
04. Meline 04:03
05. Porphyrous 03:14
06. Thulian 04:22
07. Smaragdine 04:59
08. Nasturtium 04:07
09. Sable 03:25
10. Celeste 04:58
******************************
Total playing time: 43:36

Preview 1

Technical info
(IMG:https://metalarea.org/images/spectrogram/2019_Jun/a5489002327a9a3f49df4fe4e3357445.png)
Input File: 2 - Eau de Nil.mp3
Channels : 2
Sample Rate : 44100
Precision : 16-bit
Duration : 00:04:43.91 = 12520607 samples = 21293.5 CDDA sectors
File Size : 11.4M
Bit Rate : 322k
Sample Encoding: MPEG audio (layer I, II or III)
Comments :
Title=Eau de Nil
Artist=Gorslava
Album=Chromatic Ritual Magic
Tracknumber=2
Year=2019
Genre=Metal
Discnumber=1



Register


Go to the top of the page
  Insert nick Quick quote
+Quote Post
 
Start new topic
Replies (1 - 1)
post Jun 15 2019, 11:08:55
Post #2

South Of Heaven /адепт ВУДУ
**************
Group: Металариец
Posts: 13,795
Releases: 9
On Forums: 9 years 4 months
Thanks: 5157 time(s)
Unknown


Чего-то групп такого уровня и стиля стало немерено, как у дурачка фантиков.
Go to the top of the page
  Insert nick Quick quote
+Quote Post

Reply to this topicStart new topic
1 User(s) are reading this topic (1 Guests and 0 Anonymous Users)
0 Members:

 



- Lo-Fi Version Support form
Copyrights and abuse reports form
Time is now: 18th August 2019 - 23:10:20