Welcome Guest ( Log In | Register )

> Releases Upload / Добавление релизов

Добавить релиз тут / Click here to add release
Рекомендованные обменники / Recommended file shares

 
Reply to this topicStart new topic
> Elephant - Liechtenstein (2019), Instrumental/Psychedelic Doom Metal/Drone
post Jun 14 2019, 15:14:24
Post #1

Serial Uploader
Group Icon
Group: V.I.P
Posts: 35,420
Releases: 33632
From: Lithuania
On Forums: 11 years 1 week
Thanks: 386071 time(s)
Lithuania


(IMG:https://metalarea.org/images/audiocovers/2019_Jun/acov_tid323010_thumb.jpg)

*Artist: Elephant
*Album: Liechtenstein
*Year: 2019
*Genre: Instrumental/Psychedelic Doom Metal/Drone
*Country: Austria (IMG:https://metalarea.org/forum/style_images/flags/Austria.png)
*Format: mp3@CBR320kbps
*Size: 129MB

Tracklist:
01. Mantra / Shinra 24:04
02. Back To Earth 05:43
03. Crimson Dunes / Indigo Forest 20:24
04. Space 06:28
******************************
Total playing time: 56:39



(IMG:https://metalarea.org/images/youtube.png)

Technical info
(IMG:https://metalarea.org/images/spectrogram/2019_Jun/301e1eff6c2951e2515dd4c5eab34cce.png)
Input File: 02 - Back to Earth.mp3
Channels : 2
Sample Rate : 44100
Precision : 16-bit
Duration : 00:05:43.58 = 15152054 samples = 25768.8 CDDA sectors
File Size : 13.7M
Bit Rate : 320k
Sample Encoding: MPEG audio (layer I, II or III)
Comments :
Title=Back to Earth
Artist=Elephant
Album=Liechtenstein
Tracknumber=2
Year=2019
Genre=Metal
Discnumber=1



Register


Go to the top of the page
  Insert nick Quick quote
+Quote Post

Reply to this topicStart new topic
1 User(s) are reading this topic (1 Guests and 0 Anonymous Users)
0 Members:

 



- Lo-Fi Version Support form
Copyrights and abuse reports form
Time is now: 18th June 2019 - 17:39:07