Welcome Guest ( Log In | Register )

> Releases Upload / Добавление релизов

Добавить релиз тут / Click here to add release
Рекомендованные обменники / Recommended file shares

 
Reply to this topicStart new topic
> Perky Macabre - Pile Of Stinking Heads [ep] (2019), Grindcore (D95)
post Jun 14 2019, 15:32:57
Post #1

Serial Uploader
Group Icon
Group: V.I.P
Posts: 35,420
Releases: 33632
From: Lithuania
On Forums: 11 years 1 week
Thanks: 386071 time(s)
Lithuania


(IMG:https://metalarea.org/images/audiocovers/2019_Jun/acov_tid323012_thumb.jpg)

*Artist: Perky Macabre
*Album: Pile Of Stinking Heads [ep]
*Year: 2019
*Genre: Grindcore
*Country: United States (IMG:https://metalarea.org/forum/style_images/flags/United%20States.png)
*Format: mp3@VBR212kbps
*Size: 6MB

Tracklist:
01. Pink Teeth 00:19
02. Body Bits In The Garden 00:34
03. Inhospitable Trance 00:28
04. Love You To Pieces 00:27
05. Lust Torso Cleaving 01:06
06. Frostbitten Dick 00:43
******************************
Total playing time: 3:37



Technical info
(IMG:https://metalarea.org/images/spectrogram/2019_Jun/12845f74e145b11d855edccb0c311308.png)
Input File: 02. Body Bits In The Garden.mp3
Channels : 2
Sample Rate : 44100
Precision : 16-bit
Duration : 00:00:34.56 = 1524096 samples = 2592 CDDA sectors
File Size : 1.03M
Bit Rate : 239k
Sample Encoding: MPEG audio (layer I, II or III)
Comments :
Title=Body Bits In The Garden
Artist=Perky Macabre
Album=Pile Of Stinking Heads
Tracknumber=2
Year=2019



Register


Thanks:
Go to the top of the page
  Insert nick Quick quote
+Quote Post

Reply to this topicStart new topic
1 User(s) are reading this topic (1 Guests and 0 Anonymous Users)
0 Members:

 



- Lo-Fi Version Support form
Copyrights and abuse reports form
Time is now: 18th June 2019 - 17:39:35