Welcome Guest ( Log In | Register )

> Releases Upload / Добавление релизов

Добавить релиз тут / Click here to add release
Рекомендованные обменники / Recommended file shares

 
Reply to this topicStart new topic
> Bloodsoaked Necrovoid - The Apocryphal Paths Of The Ancient 8Th Vitriolic Transcendence [compilation] (2019), Doom/Death Metal
post Jun 14 2019, 16:51:52
Post #1

the faceless one
Group Icon
Group: S-moderation team
Posts: 9,044
Releases: 1793
On Forums: 10 years 10 months
Thanks: 106166 time(s)
Russian Federation


(IMG:http://metalarea.org/images/audiocovers/2019_Jun/acov_tid323013_thumb.jpg)

*Artist: Bloodsoaked Necrovoid
*Album: The Apocryphal Paths Of The Ancient 8Th Vitriolic Transcendence [compilation]
*Year: 2019
*Genre: Doom/Death Metal
*Country: Costa Rica (IMG:http://metalarea.org/forum/style_images/flags/Costa%20Rica.png)
*Format: mp3@CBR320kbps
*Size: 95MB

Tracklist:
1. Quintessence Of The Colossal Cosmic Entity 04:07
2. Metaphysical Prolapse Through Purulent Detaching Nightmares 06:15
3. Dismal Catacombs Of Eternal Astral Flagellating Torment 03:16
4. Consuming Darkness Of Void Towards Inconceivably Vast Insanity 05:26
5. Flesh Divinations For The Ego-Plundered Psyche 04:31
6. Vortex Extracting Putrid Disembodied Beings 04:09
7. Substance Conceiled In Opened Conduit Discharging Flesh - Penetrating Agony 07:55
8. Sempiternal Gravitational Pull Of The Massive Cosmic Cauldron 06:06
******************************
Total playing time: 41:45



Extended info
Iron Bonehead Productions


Technical info
(IMG:http://metalarea.org/images/spectrogram/2019_Jun/0f06e5792303b724a421e378ae5dbef0.png)
Input File: 02 Metaphysical Prolapse Through Purulent Detaching Nightmares.mp3
Channels : 2
Sample Rate : 44100
Precision : 16-bit
Duration : 00:06:14.59 = 16519551 samples = 28094.5 CDDA sectors
File Size : 15.0M
Bit Rate : 320k
Sample Encoding: MPEG audio (layer I, II or III)
Comments :
Title=Metaphysical Prolapse Through Purulent Detaching Nightmares
Artist=Bloodsoaked Necrovoid
Album=The Apocryphal Paths of the Ancient 8th Vitriolic Transcendence
Tracknumber=2
Year=2019
Genre=Metal



Register


Go to the top of the page
  Insert nick Quick quote
+Quote Post

Reply to this topicStart new topic
1 User(s) are reading this topic (1 Guests and 0 Anonymous Users)
0 Members:

 



- Lo-Fi Version Support form
Copyrights and abuse reports form
Time is now: 18th June 2019 - 18:34:17