Welcome Guest ( Log In | Register )

> Releases Upload / Добавление релизов

Добавить релиз тут / Click here to add release
Рекомендованные обменники / Recommended file shares

> Abigorum - Exaltatus Mechanism (2019), Black/Doom Metal
post Jun 14 2019, 19:58:48
Post #1

Правь статус, ####!111
**************
Group: Металариец
Posts: 17,395
Releases: 11800
From: Г.Харьков
On Forums: 7 years 1 month
Thanks: 197443 time(s)
Unknown


(IMG:https://metalarea.org/images/audiocovers/2019_Jun/acov_tid323021_thumb.jpg)

*Artist: Abigorum
*Album: Exaltatus Mechanism
*Year: 2019
*Genre: Black/Doom Metal
*Country: International (Russia (IMG:https://metalarea.org/forum/style_images/flags/Russian%20Federation.png) | Germany (IMG:https://metalarea.org/forum/style_images/flags/Germany.png) )
*Format: mp3@CBR320kbps
*Size: 103MB

Tracklist:
1. Grau und Schwarz
2. Maskenball
3. Jetzt
4. Für die Ewigkeit
5. Königreich Dunkelheit
6. Der ängstliche Mensch
7. Krieg
8. Über Dich
9. Das Kloster
******************************
Total playing time: 45:31





Extended info
Russia / Germany
Sandra "Pesthexe" Batsch - bass
Tino "Fluch" Thiele - guitars, vocals, lyrics
Aleksey "Satanath" Korolyov - drums, keys






Technical info
(IMG:https://metalarea.org/images/spectrogram/2019_Jun/b6ce87e78d3ca9e95c5768d68b1ef376.png)
Input File: 04 - Für Die Ewigkeit.mp3
Channels : 2
Sample Rate : 44100
Precision : 16-bit
Duration : 00:04:55.16 = 13016556 samples = 22137 CDDA sectors
File Size : 11.8M
Bit Rate : 320k
Sample Encoding: MPEG audio (layer I, II or III)
Comments :
Title=Für Die Ewigkeit
Artist=Abigorum
Album=Exaltatus Mechanism
Tracknumber=4
Year=2019
Genre=Metal



Register


Go to the top of the page
  Insert nick Quick quote
+Quote Post
 
Start new topic
Replies (1 - 2)
post Jun 15 2019, 01:03:55
Post #2

\m/
Group Icon
Group: S-moderation team
Posts: 7,649
Releases: 19
From: Петропавловск-Камчатский
On Forums: 10 years 6 days
Thanks: 7086 time(s)
Russian Federation


(IMG:style_emoticons/default/20.gif)


Thanks:
Go to the top of the page
  Insert nick Quick quote
+Quote Post
post Yesterday, 18:50:10
Post #3

кручу наждак
**************
Group: Металариец
Posts: 3,902
Releases: 96
From: Самара
On Forums: 9 years 1 month
Thanks: 2894 time(s)
Russian Federation


Неплохо в целом. Напоминает лайтовую версию Demon Goat.
Go to the top of the page
  Insert nick Quick quote
+Quote Post

Reply to this topicStart new topic
1 User(s) are reading this topic (1 Guests and 0 Anonymous Users)
0 Members:

 



- Lo-Fi Version Support form
Copyrights and abuse reports form
Time is now: 18th June 2019 - 18:43:47