Welcome Guest ( Log In | Register )

> И неформату есть предел.

Рэп/хип-хоп/шансон/поп удаляются. Для них есть свои порталы.

> The Doors - Morrison Hotel (40Th Anniversary Mixes) (1970), Psychedelic Rock (D9)
post Jun 16 2019, 13:51:20
Post #1

Правь статус, ####!111
**************
Group: Металариец
Posts: 41,291
Releases: 606
On Forums: 10 years 1 month
Thanks: 31975 time(s)
Russian Federation


(IMG:http://metalarea.org/images/audiocovers/2019_Jun/acov_tid323075_thumb.jpg)

*Artist: The Doors
*Album: Morrison Hotel (40Th Anniversary Mixes)
*Year: 1970
*Genre: Psychedelic Rock
*Country: United States (IMG:http://metalarea.org/forum/style_images/flags/United%20States.png)
*Format: mp3@CBR320kbps
*Size: 174MB

Tracklist:
01. Roadhouse Blues
02. Waiting For The Sun
03. You Make Me Real
04. Peace Frog
05. Blue Sunday
06. Ship Of Fools
07. Land Ho
08. The Spy
09. Queen Of The Highway
10. Indian Summer
11. Maggie M'Gill
12. Talking Blues
13. Roadhouse Blues (Take 1-3)
14. Roadhouse Blues (Take 6)
15. Carol
16. Roadhouse Blues (Take 1)
17. Money Beats Soul
18. Roadhouse Blues (Takes 13-15)
19. Peace Frog (False Starts & Dialogue)
20. The Spy (Version 2)
21. Queen Of The Highway (Jazz Version)
******************************
Total playing time: 1:19:16

(IMG:http://metalarea.org/images/youtube.png)

Technical info
(IMG:http://metalarea.org/images/spectrogram/2019_Jun/9ef2296438baca0563bf994043d378a0.png)
Input File: 01. Roadhouse Blues.mp3
Channels : 2
Sample Rate : 44100
Precision : 16-bit
Duration : 00:04:08.70 = 10967758 samples = 18652.6 CDDA sectors
File Size : 9.95M
Bit Rate : 320k
Sample Encoding: MPEG audio (layer I, II or III)
Comments :
Title=Roadhouse Blues
Artist=The Doors
Album=Morrison Hotel
Tracknumber=01/21
Year=2007
Genre=Psychedelic Rock



Register


Go to the top of the page
  Insert nick Quick quote
+Quote Post
 
Start new topic
Replies (1 - 3)
post Jun 16 2019, 17:33:13
Post #2

Правь статус, ####!111
**************
Group: Металариец
Posts: 41,291
Releases: 606
On Forums: 10 years 1 month
Thanks: 31975 time(s)
Russian Federation


Хорошие мои, что скажете за сей релиз?
Go to the top of the page
  Insert nick Quick quote
+Quote Post
post Jun 16 2019, 18:54:39
Post #3

Сволочь обыкновенная
**************
Group: Металариец
Posts: 2,477
Releases: 136
From: Брест
On Forums: 11 years 2 months
Thanks: 3154 time(s)
Belarus


А что тут говорить, The Doors это The Doors - мне всегда на "ура" . А то что перемиксовано и ремастировано, то оно только для разнообразия)


Go to the top of the page
  Insert nick Quick quote
+Quote Post
post Jun 16 2019, 20:01:19
Post #4

Русь Понад Усе!
**************
Group: Металариец
Posts: 4,193
Releases: 15
From: Украина
On Forums: 11 years 10 months
Thanks: 1632 time(s)
Ukraine


Это просто крутяк!!!


Go to the top of the page
  Insert nick Quick quote
+Quote Post

Reply to this topicStart new topic
1 User(s) are reading this topic (1 Guests and 0 Anonymous Users)
0 Members:

 



- Lo-Fi Version Support form
Copyrights and abuse reports form
Time is now: 22nd July 2019 - 07:24:44