Welcome Guest ( Log In | Register )

> Hirilorn - Litanies Of Annihilation [compilation] (2017), Black Metal
post Jun 19 2019, 16:53:55
Post #1

Литр
*
Group: Подсевший
Posts: 64
Releases: 3
On Forums: 10 years 4 months
Thanks: 88 time(s)
Ukraine


(IMG:https://metalarea.org/images/audiocovers/2019_Jun/acov_tid323183_thumb.jpg)

*Artist: Hirilorn
*Album: Litanies Of Annihilation [compilation]
*Year: 2017
*Genre: Black Metal
*Country: France (IMG:https://metalarea.org/forum/style_images/flags/France.png)
*Format: mp3@CBR256kbps
*Size: 393MB

Tracklist:
CD I - A Hymn To The Ancient Souls

"A Hymn To The Ancient Souls" Demo, 1997 / Split CD With Nasav,

2000
1. Return Of The Druids
2. Häxan (Omen Of The Witches)
3. Haunted Castle Of Rising Solitude
4. Where Lightning Strikes Eternally
5. Astral Entities

"Encyclopedia Pestilentia" Compilation, 1997
6. Where Lightning Strikes Eternally (short Version)

Split Tape With Merrimack, 1998
7. Pagan Fears

"Revenge Is Near" Live LP, 2004
8. The Legion That Will Never Fall
9. Haunted Castle Of Rising Solitude
10. Onward To The Kingdom Of Light
11. Pagan Fears

CD II - Legends Of Evil And Eternal Death

"Legends Of Evil And Eternal Death" CD, 1998
1. Last Ride On The Winds Of Eternity
2. The Legion That Will Never Fall
3. Through The Moonless Night
4. Praise The Supreme Ruler Of Your Soul

"Depopulate (Prelude To Apocalypse)" 7"EP, 1999
5. The Guardian Of The Final Plague
6. Onward To The Kingdom Of Light

Split 7"EP With Manitu, 2003
7. Blasphemous Forces

CD III - Prophetic Tales Of Armageddon

"Prophetic Tales Of Armageddon" Unreleased CD, Rehearsal, 1999
1. Satanic Storm
2. The Apocalyptic Catharsis
3. Rise Of The Possessed Ones
4. The Devil In The Dungeon
5. At The Last Funeral Procession

Rehearsal, 1999
6. Onward To The Kingdom Of Light
7. Blasphemous Forces
******************************
Total playing time: 3:37:53

Extended info
3 CD Box Compilation.
Limited to 1000 copies.


Technical info
(IMG:https://metalarea.org/images/spectrogram/2019_Jun/b0f6493307e89efcc122f98c2b0fa968.png)
Input File: 09. Haunted Castle Of Rising Solitude.mp3
Channels : 2
Sample Rate : 44100
Precision : 16-bit
Duration : 00:08:14.84 = 21822356 samples = 37112.9 CDDA sectors
File Size : 15.8M
Bit Rate : 256k
Sample Encoding: MPEG audio (layer I, II or III)
Comments :
Title=Haunted Castle Of Rising Solitude
Artist=Hirilorn
Album=Litanies Of Annihilation
Tracknumber=09/11
Year=2017
Genre=Black Metal



Register


Go to the top of the page
  Insert nick Quick quote
+Quote Post
 
Start new topic
Replies (1 - 3)
post Jun 20 2019, 15:39:47
Post #2

De Mysteriis Dom Sathanas
**************
Group: Металариец
Posts: 3,991
Releases: 63
From: Doom
On Forums: 11 years 11 months
Thanks: 3389 time(s)
Russian Federation


Спасибо, нежданчик! (IMG:style_emoticons/default/pray.gif)
Go to the top of the page
  Insert nick Quick quote
+Quote Post
post Jun 28 2019, 03:31:34
Post #3

Group: Дух
Posts: 3
Releases: 0
On Forums: 11 years 11 months
Thanks: 4 time(s)
Russian Federation


Ссылка дохлая.
Просьба перезалить.
Go to the top of the page
  Insert nick Quick quote
+Quote Post
post Oct 11 2019, 11:30:33
Post #4

Group Icon
Group: S-moderation team
Posts: 15,686
Releases: 1440
From: Zagreb
On Forums: 9 years 4 months
Thanks: 70439 time(s)
Croatia


Register


Go to the top of the page
  Insert nick Quick quote
+Quote Post

Reply to this topicStart new topic
1 User(s) are reading this topic (1 Guests and 0 Anonymous Users)
0 Members:

 



- Lo-Fi Version Support form
Copyrights and abuse reports form
Time is now: 5th July 2020 - 07:04:05