Welcome Guest ( Log In | Register )

> Forum rules / Правила раздела

Here go releases which can't go to New releases forums due lack of information, stolen links or incorrect data and just founded in other sites links with minimum info. Reissue of this releases through Add release form with added/corrected data, info and own links highly welcomed.

Сюда уходят релизы, не пропущенные в основные релизные форумы по причинам отсутствия, недостаточности или неверности/некорректности сопровождающей информации, содержащие ссылки, указывающие на файлы, залитые не автором темы, а так же просто найденные где-то ссылки с минимумом информации. Переоформление тем отсюда через форму Добавления релиза с перезаливкой ссылок крайне приветствуется.

 
Reply to this topicStart new topic
> Cremation Pyre - The Flame Begins - Rehearsal [demo] (2018), Black/Death/Thrash
post Jun 20 2019, 03:37:42
Post #1

aggresive exumator!
*********
Group: Металариец
Posts: 934
Releases: 0
On Forums: 7 years 11 months
Thanks: 35 time(s)
Unknown


(IMG:http://metalarea.org/images/audiocovers/2019_Jun/acov_tid323199_thumb.jpg)

*Artist: Cremation Pyre
*Album: The Flame Begins - Rehearsal [demo]
*Year: 2018
*Genre: Black/Death/Thrash
*Country: Chile (IMG:http://metalarea.org/forum/style_images/flags/Chile.png)
*Format: mp3@CBR320kbps
*Size: 19MB

Tracklist:
1. Look at the Eyes... The Satan's Wrath 03:13

2. Pyre 04:01

3. Electric Shock (Schizo cover) 01:26
******************************
Total playing time: 8:40

Technical info
(IMG:http://metalarea.org/images/spectrogram/2019_Jun/cd2912b801755ae8de6ba4c9a756d639.png)
Input File: 01 - Look at the Eyes... The Satan\'s Wrath.mp3
Channels : 2
Sample Rate : 44100
Precision : 16-bit
Duration : 00:03:12.74 = 8499702 samples = 14455.3 CDDA sectors
File Size : 7.71M
Bit Rate : 320k
Sample Encoding: MPEG audio (layer I, II or III)



Register


Thanks:
Go to the top of the page
  Insert nick Quick quote
+Quote Post

Reply to this topicStart new topic
2 User(s) are reading this topic (2 Guests and 0 Anonymous Users)
0 Members:

 



- Lo-Fi Version Support form
Copyrights and abuse reports form
Time is now: 20th September 2019 - 17:11:55