Welcome Guest ( Log In | Register )

> Forum rules / Правила раздела

Here go releases which can't go to New releases forums due lack of information, stolen links or incorrect data and just founded in other sites links with minimum info. Reissue of this releases through Add release form with added/corrected data, info and own links highly welcomed.

Сюда уходят релизы, не пропущенные в основные релизные форумы по причинам отсутствия, недостаточности или неверности/некорректности сопровождающей информации, содержащие ссылки, указывающие на файлы, залитые не автором темы, а так же просто найденные где-то ссылки с минимумом информации. Переоформление тем отсюда через форму Добавления релиза с перезаливкой ссылок крайне приветствуется.

> Cremation Pyre - The Flame Begins - Rehearsal [demo] (2018), Black/Death/Thrash
post Jun 20 2019, 03:37:42
Post #1

aggresive exumator!
**********
Group: Металариец
Posts: 1,327
Releases: 0
On Forums: 9 years 6 months
Thanks: 44 time(s)
Unknown


(IMG:http://metalarea.org/images/audiocovers/2019_Jun/acov_tid323199_thumb.jpg)

*Artist: Cremation Pyre
*Album: The Flame Begins - Rehearsal [demo]
*Year: 2018
*Genre: Black/Death/Thrash
*Country: Chile (IMG:http://metalarea.org/forum/style_images/flags/Chile.png)
*Format: mp3@CBR320kbps
*Size: 19MB

Tracklist:
1. Look at the Eyes... The Satan's Wrath 03:13

2. Pyre 04:01

3. Electric Shock (Schizo cover) 01:26
******************************
Total playing time: 8:40

Technical info
(IMG:http://metalarea.org/images/spectrogram/2019_Jun/cd2912b801755ae8de6ba4c9a756d639.png)
Input File: 01 - Look at the Eyes... The Satan\'s Wrath.mp3
Channels : 2
Sample Rate : 44100
Precision : 16-bit
Duration : 00:03:12.74 = 8499702 samples = 14455.3 CDDA sectors
File Size : 7.71M
Bit Rate : 320k
Sample Encoding: MPEG audio (layer I, II or III)



Register


Go to the top of the page
  Insert nick Quick quote
+Quote Post
 
Start new topic
Replies (1 - 3)
post Apr 18 2020, 17:40:33
Post #2

Правь статус, ####!111
**************
Group: Металариец
Posts: 4,263
Releases: 161
From: MoscoW
On Forums: 14 years 4 months
Thanks: 4334 time(s)
Russian Federation


Можно скачать Б/П в 320kbps!!!:

(IMG:style_emoticons/default/metaler.gif)


Go to the top of the page
  Insert nick Quick quote
+Quote Post
post Apr 23 2020, 12:40:19
Post #3

ZEHTAN!
******
Group: Металариец
Posts: 667
Releases: 32
From: Germany
On Forums: 15 years 1 month
Thanks: 1225 time(s)
Germany


re-upload please!

thanks! (IMG:style_emoticons/default/smile1.gif)
Go to the top of the page
  Insert nick Quick quote
+Quote Post
post Apr 28 2020, 08:13:18
Post #4

Forever Underground
**************
Group: Металариец
Posts: 8,143
Releases: 0
On Forums: 6 years 2 weeks
Thanks: 11110 time(s)
Unknown


QUOTE(craP_cillA @ Apr 23 2020, 13:40:19) *
re-upload

WAV
Register

If you want Mp3 version, you can download from Bandcamp (name your price = 0 ) (IMG:style_emoticons/default/smile3.gif)


Thanks:
Go to the top of the page
  Insert nick Quick quote
+Quote Post

Reply to this topicStart new topic
2 User(s) are reading this topic (2 Guests and 0 Anonymous Users)
0 Members:

 



- Lo-Fi Version Support form
Copyrights and abuse reports form
Time is now: 21st April 2021 - 15:08:43