Welcome Guest ( Log In | Register )

> Releases Upload / Добавление релизов

Добавить релиз тут / Click here to add release
Рекомендованные обменники / Recommended file shares

> Organectomy - Existential Disconnect (2019), Brutal Death Metal
post Jun 20 2019, 11:25:22
Post #1

Serial Uploader
Group Icon
Group: V.I.P
Posts: 35,816
Releases: 34024
From: Lithuania
On Forums: 11 years 2 months
Thanks: 393168 time(s)
Lithuania


(IMG:https://metalarea.org/images/audiocovers/2019_Jun/acov_tid323213_thumb.jpg)

*Artist: Organectomy
*Album: Existential Disconnect
*Year: 2019
*Genre: Brutal Death Metal
*Country: Israel (IMG:https://metalarea.org/forum/style_images/flags/Israel.png)
*Format: mp3@CBR320kbps
*Size: 111MB

Tracklist:
01. Severed from Humanity 04:16
02. Existential Disconnect 04:53
03. Antithetical 03:39
04. No Solace in Ascendance 06:15
05. Catastrophic Intent 03:50
06. The Agony of Godhood 04:54
07. Unending Regrowth 04:07
08. Where Pantheons Lie I: Malfeasance 03:39
09. Where Pantheons Lie II: Conviction 04:14
10. Anguish in Lamina 04:03
11. The Infinite Witness 04:28
******************************
Total playing time: 48:18

(IMG:https://metalarea.org/images/myspace.png)


(IMG:https://metalarea.org/images/youtube.png)

Technical info
(IMG:https://metalarea.org/images/spectrogram/2019_Jun/0f3b33e8b6e337389a24d180fec600d7.png)
Input File: 2 - Existential Disconnect.mp3
Channels : 2
Sample Rate : 44100
Precision : 16-bit
Duration : 00:04:53.50 = 12943394 samples = 22012.6 CDDA sectors
File Size : 11.8M
Bit Rate : 322k
Sample Encoding: MPEG audio (layer I, II or III)
Comments :
Title=Existential Disconnect
Artist=Organectomy
Album=Existential Disconnect
Tracknumber=2
Year=2019
Genre=Metal
Discnumber=1



Register


Go to the top of the page
  Insert nick Quick quote
+Quote Post
 
Start new topic
Replies (1 - 8)
post Jun 20 2019, 15:00:31
Post #2

Правь статус, ####!111
**************
Group: Металариец
Posts: 18,126
Releases: 12260
From: Г.Харьков
On Forums: 7 years 3 months
Thanks: 206581 time(s)
Unknown


Cloud Mail 320
Register


Thanks:
Go to the top of the page
  Insert nick Quick quote
+Quote Post
post Jun 20 2019, 15:58:23
Post #3

Литр
*
Group: Подсевший
Posts: 71
Releases: 0
From: Нижний Новгород
On Forums: 10 years 2 months
Thanks: 20 time(s)
Russian Federation


Экскюз ми...
А давно они из Новой Зеландии в израиль-то переехали?
Go to the top of the page
  Insert nick Quick quote
+Quote Post
post Jun 21 2019, 09:04:35
Post #4

hearer & reader
**************
Group: Металариец
Posts: 7,949
Releases: 103
From: Moscow
On Forums: 11 years 11 months
Thanks: 7453 time(s)
Russian Federation


ЦИТАТА(older68 @ Jun 20 2019, 17:58:23) *
Экскюз ми...
А давно они из Новой Зеландии в израиль-то переехали?

Это Великое Переселение народов по Некроскаму (IMG:style_emoticons/default/1488.gif)
Go to the top of the page
  Insert nick Quick quote
+Quote Post
post Jun 23 2019, 18:40:07
Post #5

кручу наждак
**************
Group: Металариец
Posts: 4,002
Releases: 96
From: Самара
On Forums: 9 years 3 months
Thanks: 2971 time(s)
Russian Federation


Вроде все ингредиенты на месте, но не цепляет.
Go to the top of the page
  Insert nick Quick quote
+Quote Post
post Jun 26 2019, 12:11:23
Post #6

Три Литра
***
Group: Завсегдатай
Posts: 225
Releases: 0
From: Ташкент
On Forums: 11 years 6 months
Thanks: 57 time(s)
Uzbekistan


Новозеландцы они. Причем классные ребята, играют очень мощно.
Go to the top of the page
  Insert nick Quick quote
+Quote Post
post Jun 27 2019, 13:44:05
Post #7

Маньяк
**********
Group: Металариец
Posts: 1,432
Releases: 0
On Forums: 10 years 5 months
Thanks: 531 time(s)
Antarctica


Середнячок. Ничего примечательного, на раз сойдёт.


Thanks:
(1) Metalass,
Go to the top of the page
  Insert nick Quick quote
+Quote Post
post Jul 9 2019, 18:48:32
Post #8

Group: Подсевший
Posts: 47
Releases: 0
On Forums: 12 years 10 months
Thanks: 6 time(s)
Russian Federation


Очень грамотно и мощно!! И предыдущий албум тоже был хорош!!
Go to the top of the page
  Insert nick Quick quote
+Quote Post
post Jul 11 2019, 04:43:08
Post #9

Going home. Flying high.
**************
Group: Металариец
Posts: 12,882
Releases: 0
From: The Land of Shadows
On Forums: 13 years 3 days
Thanks: 20904 time(s)
Russian Federation


320 kbps @ CD-rip
Register


Thanks:
(1) artscald,
Go to the top of the page
  Insert nick Quick quote
+Quote Post

Reply to this topicStart new topic
2 User(s) are reading this topic (2 Guests and 0 Anonymous Users)
0 Members:

 



- Lo-Fi Version Support form
Copyrights and abuse reports form
Time is now: 19th August 2019 - 12:05:13