Welcome Guest ( Log In | Register )

> 

Здесь релизы с живыми прямыми ссылками на lossless

> Nigrum Mortem - Consumed By Unholy Mysticism [demo] (2019), Black Metal
post Jun 21 2019, 14:26:13
Post #1

the faceless one
Group Icon
Group: S-moderation team
Posts: 9,342
Releases: 1926
On Forums: 11 years 11 months
Thanks: 115434 time(s)
Russian Federation


(IMG:http://metalarea.org/images/audiocovers/2019_Jun/acov_tid323297_thumb.jpg)

*Artist: Nigrum Mortem
*Album: Consumed By Unholy Mysticism [demo]
*Year: 2019
*Genre: Black Metal
*Country: United States (IMG:http://metalarea.org/forum/style_images/flags/United%20States.png)
*Format: mp3@CBR320kbps
*Size: 112MB

Tracklist:
1. Where The Creatures Of Undeath Roam 05:48
2. Tower Of Chaotic Energy 03:00
3. Waging War On God 05:04
4. The End Is Nigh 02:56
5. Beholding The Sign Of The Goat 07:42
6. Raising The Diabolical Forces Of Evil 05:36
7. To Embrace The Black Forest 03:31
8. The Land Of The Strigoi 06:40
9. Vampiric Corruption 02:15
10. Consumed By Unholy Mysticism 07:20
******************************
Total playing time: 49:52



Technical info
(IMG:http://metalarea.org/images/spectrogram/2019_Jun/b63280ef86d7ab6a83fcf1b5380a11b1.png)
Input File: Nigrum Mortem - 10 - Consumed By Unholy Mysticism.mp3
Channels : 2
Sample Rate : 44100
Precision : 16-bit
Duration : 00:07:20.08 = 19407660 samples = 33006.2 CDDA sectors
File Size : 17.6M
Bit Rate : 320k
Sample Encoding: MPEG audio (layer I, II or III)
Comments :
Title=Consumed By Unholy Mysticism
Artist=Nigrum Mortem
Album=Consumed By Unholy Mysticism
Tracknumber=10
Year=2019
Genre=Black Metal



Register


Go to the top of the page
  Insert nick Quick quote
+Quote Post
 
Start new topic
Replies (1 - 6)
post Jun 22 2019, 22:40:04
Post #2

De Mysteriis Dom Sathanas
**************
Group: Металариец
Posts: 4,006
Releases: 63
From: Doom
On Forums: 12 years 3 weeks
Thanks: 3411 time(s)
Russian Federation


Истинный Black metal безо всяких извращений! (IMG:style_emoticons/default/pray.gif)
Напомнило Judas Iscariot. To Embrace The Black Forest просто убила (IMG:style_emoticons/default/true_black.gif)


Thanks:
Go to the top of the page
  Insert nick Quick quote
+Quote Post
post Jun 23 2019, 05:10:41
Post #3

**************
Group: Металариец
Posts: 2,427
Releases: 14
From: Казань
On Forums: 10 years 10 months
Thanks: 3310 time(s)
Russian Federation


Да, соглашусь, хорошая обойма патриархального Black Metal ключа, группа правильной закваски


Go to the top of the page
  Insert nick Quick quote
+Quote Post
post Jun 23 2019, 19:04:32
Post #4

Четыре Литра
****
Group: Металариец
Posts: 391
Releases: 62
From: italy
On Forums: 12 years 3 weeks
Thanks: 1389 time(s)
Italy


nice stuff
Go to the top of the page
  Insert nick Quick quote
+Quote Post
post Jul 7 2019, 10:25:01
Post #5

.
**************
Group: Металариец
Posts: 3,971
Releases: 0
On Forums: 4 years 6 months
Thanks: 2615 time(s)
Russian Federation


ЦИТАТА(RUSP73 @ 23rd June 2019 - 02:40:04) *
To Embrace The Black Forest

стоит качать уже за один этот трек.
думаю, это был бы сегодняшний JI, если бы не завязал. хотя мало ли, не завязал бы, ударился в какой нибудь пост, завел православный инстаграмм или твит. хотя мало ли.


Go to the top of the page
  Insert nick Quick quote
+Quote Post
post Sep 15 2019, 09:06:54
Post #6

antithesis
**************
Group: Металариец
Posts: 3,144
Releases: 34
From: VRN
On Forums: 10 years 2 months
Thanks: 1953 time(s)
Russian Federation


просто бальзам на душу, слов нет. потрясающая мглистая сырость и древнее звёздное небо.


Go to the top of the page
  Insert nick Quick quote
+Quote Post
post Aug 1 2020, 10:44:53
Post #7

Правь статус, ####!111
**************
Group: Металариец
Posts: 3,579
Releases: 36
On Forums: 2 years 9 months
Thanks: 8541 time(s)
Unknown


Reissue 2020 Discogs
Register



Go to the top of the page
  Insert nick Quick quote
+Quote Post

Reply to this topicStart new topic
2 User(s) are reading this topic (2 Guests and 0 Anonymous Users)
0 Members:

 



- Lo-Fi Version Support form
Copyrights and abuse reports form
Time is now: 5th August 2020 - 06:24:33