Welcome Guest ( Log In | Register )

> Hatyrkan - Demo II [demo] (2019), Raw Black Metal
post Jun 22 2019, 01:47:06
Post #1

.....
**************
Group: Металариец
Posts: 2,791
Releases: 112
On Forums: 10 years 8 months
Thanks: 3983 time(s)
Unknown


(IMG:https://metalarea.org/images/audiocovers/2019_Jun/acov_tid323314_thumb.jpg)

*Artist: Hatyrkan
*Album: Demo II [demo]
*Year: 2019
*Genre: Raw Black Metal
*Country: Belgium (IMG:https://metalarea.org/forum/style_images/flags/Belgium.png)
*Format: mp3@CBR320kbps
*Size: 29MB

Tracklist:
1. Intro 00:33
2. Pestilential Rats 01:43
3. Infected By Plague 04:09
4. The Stench of Death 02:08
5. Poisoned Air 03:06
6. Annihilate Them All 03:00
7. Outro 00:12
******************************
Total playing time: 14:51

(IMG:https://metalarea.org/images/youtube.png)

Technical info
(IMG:https://metalarea.org/images/spectrogram/2019_Jun/caa5b4371bd2b91f5b5c015f3d58a98a.png)
Input File: 003 Hatyrkan - 3. Infected By Plague.mp3
Channels : 2
Sample Rate : 44100
Precision : 16-bit
Duration : 00:04:09.24 = 10991528 samples = 18693.1 CDDA sectors
File Size : 9.97M
Bit Rate : 320k
Sample Encoding: MPEG audio (layer I, II or III)
Comments :
Artist=Hatyrkan
Album=Infected By Plague
Genre=12



Register


Go to the top of the page
  Insert nick Quick quote
+Quote Post
 
Start new topic
Replies (1 - 1)
post Jun 22 2019, 14:03:36
Post #2

.....
**************
Group: Металариец
Posts: 2,791
Releases: 112
On Forums: 10 years 8 months
Thanks: 3983 time(s)
Unknown


Go to the top of the page
  Insert nick Quick quote
+Quote Post

Reply to this topicStart new topic
2 User(s) are reading this topic (2 Guests and 0 Anonymous Users)
0 Members:

 



- Lo-Fi Version Support form
Copyrights and abuse reports form
Time is now: 31st March 2020 - 02:01:48