Welcome Guest ( Log In | Register )

> И неформату есть предел.

Рэп/хип-хоп/шансон/поп удаляются. Для них есть свои порталы.

> Diamanda Galás - All The Way [compilation] (2017), Avant-Garde/Jazz/Experimental/Piano Blues
post Jun 23 2019, 20:22:00
Post #1

Правь статус, ####!111
**************
Group: Металариец
Posts: 47,343
Releases: 742
On Forums: 11 years 3 months
Thanks: 40299 time(s)
Russian Federation


(IMG:http://metalarea.org/images/audiocovers/2019_Jun/acov_tid323377_thumb.jpg)

*Artist: Diamanda Galás
*Album: All The Way [compilation]
*Year: 2017
*Genre: Avant-Garde/Jazz/Experimental/Piano Blues
*Country: United States (IMG:http://metalarea.org/forum/style_images/flags/United%20States.png)
*Format: mp3@CBR320kbps
*Size: 86MB

Tracklist:
1. All The Way
2. You Don’t Know What Love Is
3. The Thrill Is Gone
4. Round Midnight
5. O Death
6. Pardon Me I’ve Got Someone To Kill
******************************
Total playing time: 41:04

(IMG:http://metalarea.org/images/youtube.png)

Technical info
(IMG:http://metalarea.org/images/spectrogram/2019_Jun/262fd4ed8853b10eb73bc2dac865412e.png)
Input File: 01 - All the Way.mp3
Channels : 2
Sample Rate : 44100
Precision : 16-bit
Duration : 00:07:16.79 = 19262615 samples = 32759.5 CDDA sectors
File Size : 17.5M
Bit Rate : 321k
Sample Encoding: MPEG audio (layer I, II or III)
Comments :
Title=All the Way
Artist=Diamanda Galas
Album=All the Way
Tracknumber=1/6
Year=2017
Genre=Avant-garde Jazz, Experimental, Piano Blues



Register


Go to the top of the page
  Insert nick Quick quote
+Quote Post
 
Start new topic
Replies (1 - 2)
post Jun 29 2019, 13:47:47
Post #2

Два Литра
**
Group: Завсегдатай
Posts: 175
Releases: 0
From: Чуркестан
On Forums: 13 years 2 weeks
Thanks: 17 time(s)
Uzbekistan


Теперь у нас есть всё!©


Thanks:
Go to the top of the page
  Insert nick Quick quote
+Quote Post
post Jun 29 2019, 13:56:31
Post #3

Правь статус, ####!111
**************
Group: Металариец
Posts: 47,343
Releases: 742
On Forums: 11 years 3 months
Thanks: 40299 time(s)
Russian Federation


ЦИТАТА(zoog @ Jun 29 2019, 16:47:47) *
Теперь у нас есть всё!©


Не все, залью еще один релизец Диаманды за 2017 год + добью до конца диско.

И вот тогда уже будет все (IMG:style_emoticons/default/bye.gif)
Go to the top of the page
  Insert nick Quick quote
+Quote Post

Reply to this topicStart new topic
2 User(s) are reading this topic (2 Guests and 0 Anonymous Users)
0 Members:

 



- Lo-Fi Version Support form
Copyrights and abuse reports form
Time is now: 22nd September 2020 - 09:01:08