Welcome Guest ( Log In | Register )

> Donarhall - Helvegr (2019), Atmospheric Black Metal
post Jun 25 2019, 11:18:46
Post #1

Маньяк
**********
Group: Металариец
Posts: 1,033
Releases: 866
From: Новороссийск
On Forums: 8 years 7 months
Thanks: 15521 time(s)
Russian Federation


(IMG:https://metalarea.org/images/audiocovers/2019_Jun/acov_tid323426_thumb.jpg)

*Artist: Donarhall
*Album: Helvegr
*Year: 2019
*Genre: Atmospheric Black Metal
*Country: Germany (IMG:https://metalarea.org/forum/style_images/flags/Germany.png)
*Format: mp3@CBR320kbps
*Size: 108MB

Tracklist:
01. Byrdh 02:58
02. Vinda 07:20
03. Hyrr 07:22
04. Heimr 06:09
05. Vagr 05:09
06. Sunna 06:46
07. Natt 05:01
08. Liflat 06:16
******************************
Total playing time: 47:04



Info






Technical info
(IMG:https://metalarea.org/images/spectrogram/2019_Jun/7cb64a54606bdb0e912cd3d1078234be.png)
Input File: 03. Hyrr.mp3
Channels : 2
Sample Rate : 44100
Precision : 16-bit
Duration : 00:07:22.10 = 19496478 samples = 33157.3 CDDA sectors
File Size : 17.7M
Bit Rate : 320k
Sample Encoding: MPEG audio (layer I, II or III)
Comments :
Title=Hyrr
Artist=Donarhall
Album=Helvegr
Tracknumber=03
Year=2019
Genre=Black Metal



Register


Go to the top of the page
  Insert nick Quick quote
+Quote Post
 
Start new topic
Replies (1 - 1)
post Jul 18 2019, 23:07:35
Post #2

ME[ta]LLOMAN
**************
Group: Металариец
Posts: 4,941
Releases: 3
From: Avdeyevka
On Forums: 13 years 7 months
Thanks: 1890 time(s)
Honduras


и всё жэ Тевтонцы не умеют во Влацк (имхо по умолчанию..)
исключения не в счёт. оне, скорее, статистическая погрешшность (IMG:style_emoticons/default/bye.gif)
Go to the top of the page
  Insert nick Quick quote
+Quote Post

Reply to this topicStart new topic
1 User(s) are reading this topic (1 Guests and 0 Anonymous Users)
0 Members:

 



- Lo-Fi Version Support form
Copyrights and abuse reports form
Time is now: 14th December 2019 - 00:42:08