Welcome Guest ( Log In | Register )

> Bull Of Apis Bull Of Bronze - Offerings Of Flesh And Gold (2019), Black Metal
post Jun 25 2019, 13:21:47
Post #1

Serial Uploader
Group Icon
Group: V.I.P
Posts: 36,586
Releases: 34775
From: Lithuania
On Forums: 11 years 6 months
Thanks: 407200 time(s)
Lithuania


(IMG:https://metalarea.org/images/audiocovers/2019_Jun/acov_tid323435_thumb.jpg)

*Artist: Bull Of Apis Bull Of Bronze
*Album: Offerings Of Flesh And Gold
*Year: 2019
*Genre: Black Metal
*Country: United States (IMG:https://metalarea.org/forum/style_images/flags/United%20States.png)
*Format: mp3@CBR320kbps
*Size: 105MB

Tracklist:
01. O! A Smile of Blood! 13:10
02. What Awaits Us (A Void Is But an Open Mouth) 10:51
03. Bull of Apis and Bull of Bronze 22:13
******************************
Total playing time: 46:14




Technical info
(IMG:https://metalarea.org/images/spectrogram/2019_Jun/714eba8a08e4859bd2d620eaaf9ebfa1.png)
Input File: 01 O! A Smile of Blood!.mp3
Channels : 2
Sample Rate : 44100
Precision : 16-bit
Duration : 00:13:10.83 = 34875383 samples = 59311.9 CDDA sectors
File Size : 31.6M
Bit Rate : 320k
Sample Encoding: MPEG audio (layer I, II or III)
Comments :
Title=O! A Smile of Blood!
Artist=Bull of Apis Bull of Bronze
Album=Offerings of Flesh and Gold
Tracknumber=1
Year=2019
Genre=Black Metal



Register


Go to the top of the page
  Insert nick Quick quote
+Quote Post
 
Start new topic
Replies (1 - 1)
post Jul 2 2019, 16:26:06
Post #2

Два Литра
**
Group: Завсегдатай
Posts: 186
Releases: 0
On Forums: 6 months 6 days
Thanks: 85 time(s)
Unknown


Под весьма укуреной обложкой скрывается вполне себе неплохой материал напоминающий ту музыку которая издавалась (и наверное продолжает издаваться) на Pagan Flames Productions. ‎
Go to the top of the page
  Insert nick Quick quote
+Quote Post

Reply to this topicStart new topic
1 User(s) are reading this topic (1 Guests and 0 Anonymous Users)
0 Members:

 



- Lo-Fi Version Support form
Copyrights and abuse reports form
Time is now: 9th December 2019 - 14:16:59