Welcome Guest ( Log In | Register )

> И неформату есть предел.

Рэп/хип-хоп/шансон/поп удаляются. Для них есть свои порталы.

 
Reply to this topicStart new topic
> Geezer - Spiral Fires [ep] (2019), Psychedelic Rock/Stoner/Heavy Blues (D5)
post Jun 26 2019, 17:08:57
Post #1

Правь статус, ####!111
**************
Group: Металариец
Posts: 47,009
Releases: 732
On Forums: 11 years 2 months
Thanks: 39639 time(s)
Russian Federation


(IMG:https://metalarea.org/images/audiocovers/2019_Jun/acov_tid323507_thumb.jpg)

*Artist: Geezer
*Album: Spiral Fires [ep]
*Year: 2019
*Genre: Psychedelic Rock/Stoner/Heavy Blues
*Country: United States (IMG:https://metalarea.org/forum/style_images/flags/United%20States.png)
*Format: mp3@CBR320kbps
*Size: 59MB

Tracklist:
1. Spiral Fires Part 1 05:50
2. Spiral Fires Part 2 06:57
3. Darkworld 04:52
4. Charley Reefer 07:38
******************************
Total playing time: 25:17



Technical info
(IMG:https://metalarea.org/images/spectrogram/2019_Jun/f56c726121532eda63249250e4c0d984.png)
Input File: 01 Spiral Fires Part 1.mp3
Channels : 2
Sample Rate : 44100
Precision : 16-bit
Duration : 00:05:50.22 = 15444702 samples = 26266.5 CDDA sectors
File Size : 14.2M
Bit Rate : 325k
Sample Encoding: MPEG audio (layer I, II or III)
Comments :
Title=Spiral Fires Part 1
Artist=Geezer
Album=Spiral Fires ep
Tracknumber=1
Year=2019
Genre=Stoner Blues Rock



Register


Go to the top of the page
  Insert nick Quick quote
+Quote Post

Reply to this topicStart new topic
1 User(s) are reading this topic (1 Guests and 0 Anonymous Users)
0 Members:

 



- Lo-Fi Version Support form
Copyrights and abuse reports form
Time is now: 5th August 2020 - 11:24:42