Welcome Guest ( Log In | Register )

> И неформату есть предел.

Рэп/хип-хоп/шансон/поп удаляются. Для них есть свои порталы.

 
Reply to this topicStart new topic
> Los Llanos - Los Llanos (2016), Instrumental Post Rock
post Jun 26 2019, 23:41:54
Post #1

.....
**************
Group: Металариец
Posts: 2,791
Releases: 112
On Forums: 10 years 11 months
Thanks: 3996 time(s)
Unknown


(IMG:http://metalarea.org/images/audiocovers/2019_Jun/acov_tid323514_thumb.jpg)

*Artist: Los Llanos
*Album: Los Llanos
*Year: 2016
*Genre: Instrumental Post Rock
*Country: Argentina (IMG:http://metalarea.org/forum/style_images/flags/Argentina.png)
*Format: mp3@CBR320kbps
*Size: 90MB

Tracklist:
1. Conexión 10:21
2. Amanecer 10:55
3. Decero 04:21
4. Cecilia 04:41
5. Acuario 08:53
******************************
Total playing time: 39:11

Preview 1

Technical info
(IMG:http://metalarea.org/images/spectrogram/2019_Jun/a9630c2c72c5660c298be33fb5448d69.png)
Input File: LOS LLANOS - LOS LLANOS - 02 Amanecer.mp3
Channels : 2
Sample Rate : 44100
Precision : 16-bit
Duration : 00:10:55.61 = 28912181 samples = 49170.4 CDDA sectors
File Size : 26.4M
Bit Rate : 323k
Sample Encoding: MPEG audio (layer I, II or III)
Comments :
Title=Amanecer
Artist=LOS LLANOS
Album=LOS LLANOS
Tracknumber=2
Year=2016



Register


Thanks:
Go to the top of the page
  Insert nick Quick quote
+Quote Post

Reply to this topicStart new topic
1 User(s) are reading this topic (1 Guests and 0 Anonymous Users)
0 Members:

 



- Lo-Fi Version Support form
Copyrights and abuse reports form
Time is now: 9th July 2020 - 02:22:09