Welcome Guest ( Log In | Register )

> 

Здесь релизы с живыми прямыми ссылками на lossless

> Nocturnal Breed - We Only Came For The Violence (2019), Blackened Thrash Metal
post Jun 27 2019, 12:10:36
Post #1

Правь статус, ####!111
**************
Group: Металариец
Posts: 17,759
Releases: 12042
From: Г.Харьков
On Forums: 7 years 2 months
Thanks: 202151 time(s)
Unknown


(IMG:https://metalarea.org/images/audiocovers/2019_Jun/acov_tid323547_thumb.jpg)

*Artist: Nocturnal Breed
*Album: We Only Came For The Violence
*Year: 2019
*Genre: Blackened Thrash Metal
*Country: Norway (IMG:https://metalarea.org/forum/style_images/flags/Norway.png)
*Format: mp3@CBR320kbps
*Size: 112MB

Tracklist:
1. Iron Winter (Intro) 00:56
2. Choke on Blood 03:36
3. Nekrohagel 03:57
4. We Only Came for the Violence 03:36
5. Frozen to the Cross 04:07
6. Desecrator 02:36
7. Cannibalized by Fear (Intro) 00:52
8. Sharks of the Wehrmacht 04:40
9. Limbs of Gehenna 04:13
10. War-Metal Engine 05:36
11. Can't Hold Back the Night 06:58
12. Bless the Whore 02:50
13. A Million Miles of Trench 05:09
******************************
Total playing time: 49:06



Extended info
S. A. Destroyer Bass, Vocals (1996-present)
See also: Conjuration, Antikrist, Combath, ex-Gehenna, ex-Moloch, ex-Satyricon (live), ex-Einaugd, ex-Svartalv
Axeman I. Maztor Guitars (1997-2001, 2011-present)
See also: Christ Impaled, ex-Slogstorm
Tex Terror Drums, Vocals (1998-present)
See also: Conjuration, ex-Nuctemeron
V. Fineideath Guitars (2010-present)
See also: Conjuration, Den Saakaldte, ex-Nuctemeron



Technical info
(IMG:https://metalarea.org/images/spectrogram/2019_Jun/01d06f9f35ef3c31a612800475f56682.png)
Input File: 04 We Only Came for the Violence.mp3
Channels : 2
Sample Rate : 44100
Precision : 16-bit
Duration : 00:03:36.20 = 9534464 samples = 16215.1 CDDA sectors
File Size : 8.65M
Bit Rate : 320k
Sample Encoding: MPEG audio (layer I, II or III)
Comments :
Title=We Only Came for the Violence
Artist=Nocturnal Breed
Album=We Only Came for the Violence
Tracknumber=04/13
Year=2019-19-20
Discnumber=1/1



Register


Go to the top of the page
  Insert nick Quick quote
+Quote Post
 
Start new topic
Replies (1 - 2)
post Jun 27 2019, 15:23:53
Post #2

Правь статус, ####!111
**************
Group: Металариец
Posts: 41,178
Releases: 605
On Forums: 10 years 1 month
Thanks: 31826 time(s)
Russian Federation


@320

Register


Thanks:
Go to the top of the page
  Insert nick Quick quote
+Quote Post
post Jun 27 2019, 15:35:41
Post #3

Правь статус, ####!111
**************
Group: Металариец
Posts: 17,759
Releases: 12042
From: Г.Харьков
On Forums: 7 years 2 months
Thanks: 202151 time(s)
Unknown


Cloud Mail 320
Register

FLAC (Tracks) 331 mb
Register


Go to the top of the page
  Insert nick Quick quote
+Quote Post

Reply to this topicStart new topic
1 User(s) are reading this topic (1 Guests and 0 Anonymous Users)
0 Members:

 



- Lo-Fi Version Support form
Copyrights and abuse reports form
Time is now: 18th July 2019 - 02:02:24