Welcome Guest ( Log In | Register )

> И неформату есть предел.

Рэп/хип-хоп/шансон/поп удаляются. Для них есть свои порталы.

> Stille Volk - Milharis (2019), Medieval/Celtic Folk (D7)
post Jun 27 2019, 12:31:23
Post #1

Serial Uploader
Group Icon
Group: V.I.P
Posts: 36,809
Releases: 34996
From: Lithuania
On Forums: 11 years 7 months
Thanks: 410953 time(s)
Lithuania


(IMG:https://metalarea.org/images/audiocovers/2019_Jun/acov_tid323551_thumb.jpg)

*Artist: Stille Volk
*Album: Milharis
*Year: 2019
*Genre: Medieval/Celtic Folk
*Country: France (IMG:https://metalarea.org/forum/style_images/flags/France.png)
*Format: mp3@CBR320kbps
*Size: 105MB

Tracklist:
01. Sous la peau de la montagne 04:35
02. L'aurost lunaire 04:18
03. Incantation mystique 05:43
04. Le crepuscule du patre 04:41
05. La mort de Milharis 05:25
06. Dans un temps qui n'a pas d'histoire... 01:44
07. La grotte du jadis 05:42
08. Sacre dans la tourmente 06:19
09. Neige que versa le ciel noir... 01:56
10. Parmi les monts oublies 05:29
******************************
Total playing time: 45:52


(IMG:https://metalarea.org/images/youtube.png)

Technical info
(IMG:https://metalarea.org/images/spectrogram/2019_Jun/7e1d48a1a71f700067c714e6b61f4b1b.png)
Input File: 02 L\'aurost lunaire.mp3
Channels : 2
Sample Rate : 44100
Precision : 16-bit
Duration : 00:04:18.21 = 11386973 samples = 19365.6 CDDA sectors
File Size : 10.3M
Bit Rate : 320k
Sample Encoding: MPEG audio (layer I, II or III)
Comments :
Title=L'aurost lunaire
Artist=Stille Volk
Album=Milharis
Tracknumber=02/10
Year=2019-19-20
Discnumber=1/1



Register


Go to the top of the page
  Insert nick Quick quote
+Quote Post
 
Start new topic
Replies (1 - 4)
post Jun 27 2019, 19:58:19
Post #2

ретроград
**************
Group: Металариец
Posts: 4,993
Releases: 182
On Forums: 12 years 7 months
Thanks: 7411 time(s)
Vatican City


Очень нравится их дебютник. Потом они вроде поменяли стилистику... Заценим чего тут...


Thanks:
Go to the top of the page
  Insert nick Quick quote
+Quote Post
post Jul 26 2019, 16:45:33
Post #3

Три Литра
***
Group: Завсегдатай
Posts: 270
Releases: 0
From: Moscow
On Forums: 12 years 1 week
Thanks: 18 time(s)
Russian Federation


Ох ты ж, вы живы
Go to the top of the page
  Insert nick Quick quote
+Quote Post
post Sep 30 2019, 02:03:46
Post #4

FOLK METAL FEVER
**************
Group: Металариец
Posts: 2,032
Releases: 6
From: Kyiv
On Forums: 12 years 2 months
Thanks: 269 time(s)
Ukraine


снова взялись за гитары
Go to the top of the page
  Insert nick Quick quote
+Quote Post
post Oct 29 2019, 13:35:52
Post #5

Шесть Литров
******
Group: Металариец
Posts: 676
Releases: 10
On Forums: 11 years 2 weeks
Thanks: 162 time(s)
Germany


please, re-upload
Go to the top of the page
  Insert nick Quick quote
+Quote Post

Reply to this topicStart new topic
1 User(s) are reading this topic (1 Guests and 0 Anonymous Users)
0 Members:

 



- Lo-Fi Version Support form
Copyrights and abuse reports form
Time is now: 21st January 2020 - 19:31:27