Welcome Guest ( Log In | Register )

> The Noctambulant - The Cold And Formless Deep (2019), Melodic Black Metal
post Jun 27 2019, 13:10:09
Post #1

Serial Uploader
Group Icon
Group: V.I.P
Posts: 36,075
Releases: 34276
From: Lithuania
On Forums: 11 years 3 months
Thanks: 397592 time(s)
Lithuania


(IMG:https://metalarea.org/images/audiocovers/2019_Jun/acov_tid323558_thumb.jpg)

*Artist: The Noctambulant
*Album: The Cold And Formless Deep
*Year: 2019
*Genre: Melodic Black Metal
*Country: United States (IMG:https://metalarea.org/forum/style_images/flags/United%20States.png)
*Format: mp3@CBR320kbps
*Size: 97MB

Tracklist:
01. Sonos Noctem 01:13
02. Peste 03:15
03. Morietur Solus 05:31
04. Leviathan 03:07
05. Valkyrie 03:22
06. Evil Calling 07:30
07. Bloodhunt 04:18
08. Unholy Benediction 02:22
09. Immortal 03:42
10. The Cold and Formless Deep 04:18
11. My Dark Desires 03:37
******************************
Total playing time: 42:15




(IMG:https://metalarea.org/images/youtube.png)

Technical info
(IMG:https://metalarea.org/images/spectrogram/2019_Jun/bb7a4d69a7e8174ab3f3f2c629b297e7.png)
Input File: 2 - Peste.mp3
Channels : 2
Sample Rate : 44100
Precision : 16-bit
Duration : 00:03:14.68 = 8585168 samples = 14600.6 CDDA sectors
File Size : 7.84M
Bit Rate : 322k
Sample Encoding: MPEG audio (layer I, II or III)
Comments :
Title=Peste
Artist=The Noctambulant
Album=The Cold and Formless Deep
Tracknumber=2
Year=2019
Genre=Metal
Discnumber=1



Register


Go to the top of the page
  Insert nick Quick quote
+Quote Post
 
Start new topic
Replies (1 - 5)
post Jun 28 2019, 06:34:10
Post #2

MDM-Thrash Metal
**************
Group: Металариец
Posts: 8,666
Releases: 594
From: Одесса
On Forums: 12 years 1 month
Thanks: 17254 time(s)
Ukraine


Cloud 320:
Register


Go to the top of the page
  Insert nick Quick quote
+Quote Post
post Jun 28 2019, 12:05:00
Post #3

hearer & reader
**************
Group: Металариец
Posts: 8,023
Releases: 104
From: Moscow
On Forums: 12 years 1 week
Thanks: 7515 time(s)
Russian Federation


Go to the top of the page
  Insert nick Quick quote
+Quote Post
post Jul 1 2019, 12:21:55
Post #4

Правь статус, ####!111
**************
Group: Металариец
Posts: 2,600
Releases: 8
From: Dnipro
On Forums: 11 years 2 months
Thanks: 794 time(s)
Ukraine


Такие америкосы только в радость. (IMG:style_emoticons/default/20.gif)
Go to the top of the page
  Insert nick Quick quote
+Quote Post
post Jul 8 2019, 19:07:54
Post #5

Group: Подсевший
Posts: 47
Releases: 0
On Forums: 12 years 11 months
Thanks: 6 time(s)
Russian Federation


Очень здраво! Очень слушать!))
Go to the top of the page
  Insert nick Quick quote
+Quote Post
post Jul 13 2019, 21:09:34
Post #6

Литр
*
Group: Подсевший
Posts: 84
Releases: 0
From: Лыткарино
On Forums: 4 months 5 days
Thanks: 21 time(s)
Russian Federation


На один раз. Большинство мелодий глуповатые какие-то, незрелые.
Go to the top of the page
  Insert nick Quick quote
+Quote Post

Reply to this topicStart new topic
1 User(s) are reading this topic (1 Guests and 0 Anonymous Users)
0 Members:

 



- Lo-Fi Version Support form
Copyrights and abuse reports form
Time is now: 15th September 2019 - 21:15:04