Welcome Guest ( Log In | Register )

> Seducer's Embrace - Solidarity (2019), Melodic Death Metal
post Jun 27 2019, 14:55:05
Post #1

Serial Uploader
Group Icon
Group: V.I.P
Posts: 37,112
Releases: 35296
From: Lithuania
On Forums: 11 years 9 months
Thanks: 418012 time(s)
Lithuania


(IMG:https://metalarea.org/images/audiocovers/2019_Jun/acov_tid323571_thumb.jpg)

*Artist: Seducer's Embrace
*Album: Solidarity
*Year: 2019
*Genre: Melodic Death Metal
*Country: Russian Federation (IMG:https://metalarea.org/forum/style_images/flags/Russian%20Federation.png)
*Format: mp3@CBR320kbps
*Size: 112MB

Tracklist:
01. The Pilgrimage
02. Outlander
03. W.H.Y. (With Honesty Yours)
04. We Are the Rat King
05. My Precious
06. Face II Face
07. Event Horizon
08. AshTrail
09. Killing Characters
10. Sea of Trees
11. Forever Rest
12. Blood Pressure
13. Coasts of Time
******************************
Total playing time: 48:39

(IMG:https://metalarea.org/images/myspace.png)





Technical info
(IMG:https://metalarea.org/images/spectrogram/2019_Jun/97877118a70ef4a6f041379126b40839.png)
Input File: 2 - Outlander.mp3
Channels : 2
Sample Rate : 44100
Precision : 16-bit
Duration : 00:03:41.90 = 9785614 samples = 16642.2 CDDA sectors
File Size : 8.93M
Bit Rate : 322k
Sample Encoding: MPEG audio (layer I, II or III)
Comments :
Title=Outlander
Artist=Seducer's Embrace
Album=Solidarity
Tracknumber=2
Year=2019
Genre=Metal
Discnumber=1



Register


Go to the top of the page
  Insert nick Quick quote
+Quote Post
 
Start new topic
Replies (1 - 6)
post Jun 27 2019, 15:39:07
Post #2

Правь статус, ####!111
**************
Group: Металариец
Posts: 45,595
Releases: 703
On Forums: 10 years 9 months
Thanks: 37523 time(s)
Russian Federation


@320

Register


Thanks:
Go to the top of the page
  Insert nick Quick quote
+Quote Post
post Jun 27 2019, 17:35:15
Post #3

Литр
*
Group: Подсевший
Posts: 65
Releases: 0
From: Kazakhstan
On Forums: 11 years 1 month
Thanks: 19 time(s)
Kazakhstan


Ничего интересного. Жаль. (IMG:style_emoticons/default/smile2.gif)


Thanks:
(1) Shadowman,
Go to the top of the page
  Insert nick Quick quote
+Quote Post
post Jul 3 2019, 10:45:58
Post #4

Правь статус, ####!111
**************
Group: Металариец
Posts: 45,595
Releases: 703
On Forums: 10 years 9 months
Thanks: 37523 time(s)
Russian Federation


Никому не понравилось чтоли?

В релизце 2010 года аж 8 страниц натрещали, а тут один одиноко притулившийся коммент.

Альбом неплох, так то.


Thanks:
(2) Orkkh, Seducer,
Go to the top of the page
  Insert nick Quick quote
+Quote Post
post Jul 7 2019, 19:20:40
Post #5

Group: Подсевший
Posts: 49
Releases: 0
On Forums: 13 years 5 months
Thanks: 6 time(s)
Russian Federation


Очень неплохо, я бы сказал! Звук отличный.


Thanks:
(1) Seducer,
Go to the top of the page
  Insert nick Quick quote
+Quote Post
post Aug 23 2019, 01:50:14
Post #6

Group: Подсевший
Posts: 14
Releases: 0
On Forums: 11 years 3 months
Thanks: 4 time(s)
Ukraine


Попробую воспользоваться тем языком, который употреблял сам Седьюсер на бордах: "унылаэ гагно"
Go to the top of the page
  Insert nick Quick quote
+Quote Post
post Aug 23 2019, 10:08:02
Post #7

MDM-Thrash Metal
**************
Group: Металариец
Posts: 9,318
Releases: 783
From: Одесса
On Forums: 12 years 7 months
Thanks: 21205 time(s)
Ukraine


ЦИТАТА(Brown Herald @ Aug 23 2019, 03:50:14) *
"унылаэ гагно"

Однозначно! Примитивно и абсолютно не интересно!
Go to the top of the page
  Insert nick Quick quote
+Quote Post

Reply to this topicStart new topic
2 User(s) are reading this topic (2 Guests and 0 Anonymous Users)
0 Members:

 



- Lo-Fi Version Support form
Copyrights and abuse reports form
Time is now: 28th March 2020 - 19:37:11