Welcome Guest ( Log In | Register )

> Releases Upload / Добавление релизов

Добавить релиз тут / Click here to add release
Рекомендованные обменники / Recommended file shares

> Of Fire - Dräparen (2019), Old School Death Metal
post Jun 27 2019, 16:00:26
Post #1

Правь статус, ####!111
**************
Group: Металариец
Posts: 18,206
Releases: 12314
From: Г.Харьков
On Forums: 7 years 3 months
Thanks: 207835 time(s)
Unknown


(IMG:https://metalarea.org/images/audiocovers/2019_Jun/acov_tid323582_thumb.jpg)

*Artist: Of Fire
*Album: Dräparen
*Year: 2019
*Genre: Old School Death Metal
*Country: Sweden (IMG:https://metalarea.org/forum/style_images/flags/Sweden.png)
*Format: mp3@CBR320kbps
*Size: 81MB

Tracklist:
1. Stockholms Blodbad 03:40
2. The Filth and the Fury 04:33
3. Satanic Warfare 03:33
4. Dräparen 06:00
5. Let Them Hang 05:00
6. Necro Train 04:18
7. Undead 04:24
8. Atomvinter 06:30
******************************
Total playing time: 37:58




Extended info
Martin Johansson Bass
Jonathan Thunell Guitars
Rasmus Thunell Guitars
Robin Joelsson Vocals
Rick Williamsson Drums


Technical info
(IMG:https://metalarea.org/images/spectrogram/2019_Jun/30af5edb093c71453867db35ff2dbad8.png)
Input File: 04. Dräparen.mp3
Channels : 2
Sample Rate : 44100
Precision : 16-bit
Duration : 00:06:00.30 = 15889362 samples = 27022.7 CDDA sectors
File Size : 14.5M
Bit Rate : 322k
Sample Encoding: MPEG audio (layer I, II or III)
Comments :
Title=Dräparen
Artist=Of Fire
Album=Dräparen
Tracknumber=4/8
Year=2019
Genre=9
Discnumber=1/1



Register


Go to the top of the page
  Insert nick Quick quote
+Quote Post
 
Start new topic
Replies (1 - 4)
post Jun 28 2019, 08:30:17
Post #2

Литр
*
Group: Подсевший
Posts: 90
Releases: 0
From: Moscow
On Forums: 12 years 4 months
Thanks: 11 time(s)
Russian Federation


Очень даже неплохо.


Thanks:
Go to the top of the page
  Insert nick Quick quote
+Quote Post
post Jun 29 2019, 17:40:57
Post #3

Crush The Enemies
**************
Group: Металариец
Posts: 4,219
Releases: 0
From: Moscow
On Forums: 9 years 11 months
Thanks: 2384 time(s)
Russian Federation



Какой же ВКУСНЫЙ этот звук режущих гитар классического ОЛДСКУЛ-ШВЕДСКОГО саунда - всё выдержано в лучших традициях - слушаешь и НАСЛАЖДАЕШЬСЯ!!! (IMG:style_emoticons/default/dwarf-1.gif) (IMG:style_emoticons/default/dwarf-1.gif) (IMG:style_emoticons/default/dwarf-1.gif)

P.S Легендарная педалька BOSS HM-2 (кто в теме) делает своё жужжащее дело (IMG:style_emoticons/default/9.gif)


Go to the top of the page
  Insert nick Quick quote
+Quote Post
post Jul 18 2019, 22:35:16
Post #4

ME[ta]LLOMAN
**************
Group: Металариец
Posts: 4,915
Releases: 3
From: Avdeyevka
On Forums: 13 years 4 months
Thanks: 1846 time(s)
Honduras


достойно внимания (IMG:style_emoticons/default/banana.gif) (IMG:style_emoticons/default/banana.gif) (IMG:style_emoticons/default/banana.gif)
Go to the top of the page
  Insert nick Quick quote
+Quote Post
post Jul 18 2019, 23:20:42
Post #5

Правь статус, ####!111
**************
Group: Металариец
Posts: 18,206
Releases: 12314
From: Г.Харьков
On Forums: 7 years 3 months
Thanks: 207835 time(s)
Unknown


deatholocaust,
ЦИТАТА
lossless please

FLAC (Tracks) 299 mb
Register


Go to the top of the page
  Insert nick Quick quote
+Quote Post

Reply to this topicStart new topic
1 User(s) are reading this topic (1 Guests and 0 Anonymous Users)
0 Members:

 



- Lo-Fi Version Support form
Copyrights and abuse reports form
Time is now: 26th August 2019 - 03:52:37