Welcome Guest ( Log In | Register )

> Releases Upload / Добавление релизов

Добавить релиз тут / Click here to add release
Рекомендованные обменники / Recommended file shares

> Intruder Inc. - Deviation Formula (2019), Death Metal
post Jun 28 2019, 06:56:23
Post #1

MDM-Thrash Metal
**************
Group: Металариец
Posts: 8,543
Releases: 565
From: Одесса
On Forums: 12 years 1 week
Thanks: 16590 time(s)
Ukraine


(IMG:http://metalarea.org/images/audiocovers/2019_Jun/acov_tid323603_thumb.jpg)

*Artist: Intruder Inc.
*Album: Deviation Formula
*Year: 2019
*Genre: Death Metal
*Country: Russian Federation (IMG:http://metalarea.org/forum/style_images/flags/Russian%20Federation.png)
*Format: mp3@CBR320kbps
*Size: 96MB

Tracklist:
01. Indifference
02. King of the Blind
03. Aesthetics In Practice
04. Momentary Confusion
05. Punctured by a Thousand Thorns
06. Mutilated Womb
07. Schizoid
08. Kill & Contrite... The Afterglow
******************************
Total playing time: 41:15



(IMG:http://metalarea.org/images/youtube.png)

Technical info
(IMG:http://metalarea.org/images/spectrogram/2019_Jun/0bb61f76ce91f3413c48e7ada8d58546.png)
Input File: 02. King of the Blind.mp3
Channels : 2
Sample Rate : 44100
Precision : 16-bit
Duration : 00:05:33.03 = 14686623 samples = 24977.2 CDDA sectors
File Size : 13.5M
Bit Rate : 325k
Sample Encoding: MPEG audio (layer I, II or III)
Comments :
Title=King of the Blind
Artist=Intruder Inc.
Album=Deviation Formula
Tracknumber=2
Year=2019-19-20
Discnumber=1



Register


Go to the top of the page
  Insert nick Quick quote
+Quote Post
 
Start new topic
Replies (1 - 3)
post Jun 30 2019, 10:46:15
Post #2

В чистоте и единстве:мысль-слово-дело
**************
Group: Металариец
Posts: 2,373
Releases: 9
From: Киев
On Forums: 12 years 1 month
Thanks: 1346 time(s)
Ukraine


чак стайл. всем любителям чака, слушать обязательно.
отличный релиз. тут скорее Technical/ Progressive Death Metal


Thanks:
(1) Язва,
Go to the top of the page
  Insert nick Quick quote
+Quote Post
post Jul 3 2019, 11:36:21
Post #3

Schuldinerist
**************
Group: Металариец
Posts: 10,296
Releases: 33
From:
On Forums: 12 years 4 months
Thanks: 6427 time(s)
Russian Federation


Знаю таких. Название подкорректировали..

Intruder - Mutilated Womb [single] (2009)

Intruder - Demo [demo] (2006)


Thanks:
(1) Луч,
Go to the top of the page
  Insert nick Quick quote
+Quote Post
post Jul 19 2019, 14:34:46
Post #4

Schuldinerist
**************
Group: Металариец
Posts: 10,296
Releases: 33
From:
On Forums: 12 years 4 months
Thanks: 6427 time(s)
Russian Federation


К сожалению, ничего лучше демки 2006 года парни так и не родили. Альбом средненький.
7+/10


Thanks:
(1) samokot,
Go to the top of the page
  Insert nick Quick quote
+Quote Post

Reply to this topicStart new topic
2 User(s) are reading this topic (2 Guests and 0 Anonymous Users)
0 Members:

 



- Lo-Fi Version Support form
Copyrights and abuse reports form
Time is now: 22nd August 2019 - 14:31:51