Welcome Guest ( Log In | Register )

> 

Здесь релизы с живыми прямыми ссылками на lossless

> Necro Antagonist - Necromorphic Psychopathy [ep] (2019), Brutal Death Metal
post Jun 28 2019, 22:38:35
Post #1

Правь статус, ####!111
**************
Group: Металариец
Posts: 17,759
Releases: 12042
From: Г.Харьков
On Forums: 7 years 2 months
Thanks: 202151 time(s)
Unknown


(IMG:https://metalarea.org/images/audiocovers/2019_Jun/acov_tid323645_thumb.jpg)

*Artist: Necro Antagonist
*Album: Necromorphic Psychopathy [ep]
*Year: 2019
*Genre: Brutal Death Metal
*Country: Philippines (IMG:https://metalarea.org/forum/style_images/flags/Philippines.png)
*Format: mp3@CBR320kbps
*Size: 43MB

Tracklist:
1. Necromorphic Psychopathy 04:28
2. Inhuman Execration 05:00
3. Bloodgina 04:17
4. Wrath Of Depravity (feat. Januaryo Hardy of Perverted Dexterity) 04:30
******************************
Total playing time: 18:15




Extended info
Bijay Callejo - Bass / Vocals / Drum Programming
Ren De Vera - Guitars
Session/Touring member:
Jerrick Pataksil - Vocals
Carl Ancheta - Drums


Technical info
(IMG:https://metalarea.org/images/spectrogram/2019_Jun/e9a8d5bb93203ffd52bd1beaeabbae21.png)
Input File: 02 Inhuman Execration.mp3
Channels : 2
Sample Rate : 44100
Precision : 16-bit
Duration : 00:05:00.09 = 13233749 samples = 22506.4 CDDA sectors
File Size : 12.2M
Bit Rate : 326k
Sample Encoding: MPEG audio (layer I, II or III)
Comments :
Title=Inhuman Execration
Artist=NECRO ANTAGONIST
Album=Necromorphic Psychopathy
Tracknumber=2
Year=2019



Register


Go to the top of the page
  Insert nick Quick quote
+Quote Post
 
Start new topic
Replies (1 - 1)
post Jun 29 2019, 11:52:54
Post #2

Четыре Литра
****
Group: Металариец
Posts: 312
Releases: 0
From: APATIN, SERBIA, АПАТИН, СЕРБИЯ
On Forums: 11 years 8 months
Thanks: 376 time(s)



Flac

Register
Go to the top of the page
  Insert nick Quick quote
+Quote Post

Reply to this topicStart new topic
1 User(s) are reading this topic (1 Guests and 0 Anonymous Users)
0 Members:

 



- Lo-Fi Version Support form
Copyrights and abuse reports form
Time is now: 18th July 2019 - 02:15:14