Welcome Guest ( Log In | Register )

> Releases Upload / Добавление релизов

Добавить релиз тут / Click here to add release
Рекомендованные обменники / Recommended file shares

> Ragnell - Rebirth In Darkness (2019), Blackened Death Metal
post Jun 29 2019, 09:48:48
Post #1

Правь статус, ####!111
**************
Group: Металариец
Posts: 18,148
Releases: 12274
From: Г.Харьков
On Forums: 7 years 3 months
Thanks: 206885 time(s)
Unknown


(IMG:https://metalarea.org/images/audiocovers/2019_Jun/acov_tid323664_thumb.jpg)

*Artist: Ragnell
*Album: Rebirth In Darkness
*Year: 2019
*Genre: Blackened Death Metal
*Country: Mexico (IMG:https://metalarea.org/forum/style_images/flags/Mexico.png)
*Format: mp3@CBR320kbps
*Size: 86MB

Tracklist:
1. Ablaze in the Altar (of Sacrifice)
2. Bath in the Blood of the Priest
3. Broken to Faith
4. Dethrone
5. Divine Eradication
6. Infernal Torment
7. Aeterna Victoria
8. Path of Darkness
9. Holy Center of Worship,"to Burn"
******************************
Total playing time: 38:26




Extended info
Eduardo de la Peña Bass, Vocals (2011-present)
Mauricio Guitars, Vocals (2011-present)
Dave Apocalipzyz Drums (2015-present)








Technical info
(IMG:https://metalarea.org/images/spectrogram/2019_Jun/846ab4b78f320f66d571ab3c9693a510.png)
Input File: 03 - Broken To Faith.mp3
Channels : 2
Sample Rate : 44100
Precision : 16-bit
Duration : 00:04:11.80 = 11104248 samples = 18884.8 CDDA sectors
File Size : 10.1M
Bit Rate : 320k
Sample Encoding: MPEG audio (layer I, II or III)
Comments :
Title=Broken To Faith
Artist=Ragnell
Album=Rebirth in Darkness
Tracknumber=3
Year=2019
Genre=Death Metal



Register


Go to the top of the page
  Insert nick Quick quote
+Quote Post
 
Start new topic
Replies (1 - 1)
post Jul 29 2019, 14:45:20
Post #2

спиногрыз-кровосос
****
Group: Металариец
Posts: 385
Releases: 0
On Forums: 10 years 6 months
Thanks: 63 time(s)
Russian Federation


как по мне, так отличная штука (IMG:style_emoticons/default/true_black.gif)
Go to the top of the page
  Insert nick Quick quote
+Quote Post

Reply to this topicStart new topic
1 User(s) are reading this topic (1 Guests and 0 Anonymous Users)
0 Members:

 



- Lo-Fi Version Support form
Copyrights and abuse reports form
Time is now: 20th August 2019 - 23:23:26