Welcome Guest ( Log In | Register )

> Terravore - We Came To Destroy [ep] (2019), Old School Thrash Metal
post Jun 30 2019, 12:00:24
Post #1

Правь статус, ####!111
**************
Group: Металариец
Posts: 25,773
Releases: 18452
From: Г.Харьков
On Forums: 8 years 11 months
Thanks: 364208 time(s)
Unknown


(IMG:https://metalarea.org/images/audiocovers/2019_Jun/acov_tid323718_thumb.jpg)

*Artist: Terravore
*Album: We Came To Destroy [ep]
*Year: 2019
*Genre: Old School Thrash Metal
*Country: Bulgaria (IMG:https://metalarea.org/forum/style_images/flags/Bulgaria.png)
*Format: mp3@CBR320kbps
*Size: 60MB

Tracklist:
1. Intro / We Came To Destroy 06:58
2. Hollow Points 05:10
3. Death From Above 05:20
4. 44 Caliber Brain Surgery (Demolition Hammer Cover) 04:22
5. Certain Death (Sadus cover) 04:37
******************************
Total playing time: 26:27




Extended info
Kalin Bachvarov Bass, Vocals (lead)
Trendafil Trendafilov Drums
Ivan Lazarov Guitars, Vocals
Boiko Nikolaev Guitars




Technical info
(IMG:https://metalarea.org/images/spectrogram/2019_Jun/afff2a20675acab6780db49011b83758.png)
Input File: 03. Death From Above.mp3
Channels : 2
Sample Rate : 44100
Precision : 16-bit
Duration : 00:05:19.50 = 14089950 samples = 23962.5 CDDA sectors
File Size : 12.8M
Bit Rate : 320k
Sample Encoding: MPEG audio (layer I, II or III)
Comments :
Title=Death From Above
Artist=Terravore
Album=We Came To Destroy
Tracknumber=3
Year=2019
Genre=Thrash Metal



Register


Go to the top of the page
  Insert nick Quick quote
+Quote Post
 
Start new topic
Replies (1 - 1)
post Jul 1 2019, 10:18:04
Post #2

Dr.
**************
Group: Металариец
Posts: 5,331
Releases: 0
From: Primorye.ru
On Forums: 10 years 3 weeks
Thanks: 1107 time(s)
Russian Federation


their previous


Thanks:
Go to the top of the page
  Insert nick Quick quote
+Quote Post

Reply to this topicStart new topic
2 User(s) are reading this topic (2 Guests and 0 Anonymous Users)
0 Members:

 



- Lo-Fi Version Support form
Copyrights and abuse reports form
Time is now: 18th April 2021 - 00:22:34