Welcome Guest ( Log In | Register )

> И неформату есть предел.

Рэп/хип-хоп/шансон/поп удаляются. Для них есть свои порталы.

> Diamanda Galás - At Saint Thomas The Apostle Harlem [live] (2017), Avant-Garde/Jazz/Experimental/Piano Blues (D6)
post Jun 30 2019, 14:55:11
Post #1

Правь статус, ####!111
**************
Group: Металариец
Posts: 44,929
Releases: 694
On Forums: 10 years 7 months
Thanks: 36434 time(s)
Russian Federation


(IMG:http://metalarea.org/images/audiocovers/2019_Jun/acov_tid323721_thumb.jpg)

*Artist: Diamanda Galás
*Album: At Saint Thomas The Apostle Harlem [live]
*Year: 2017
*Genre: Avant-Garde/Jazz/Experimental/Piano Blues
*Country: United States (IMG:http://metalarea.org/forum/style_images/flags/United%20States.png)
*Format: mp3@CBR320kbps
*Size: 130MB

Tracklist:
1. Verrá la more e avrá i tuoi occhi
2. Anoixe Petra
3. Angels
4. Die Stunde Kommt
5. Fernand
6. O Death
7. Amsterdam
8. Artemis
******************************
Total playing time: 56:43

Technical info
(IMG:http://metalarea.org/images/spectrogram/2019_Jun/0e63244f559ea965b77a716faefb140f.png)
Input File: 01 - Verrá la more e avrá i tuoi occhi.mp3
Channels : 2
Sample Rate : 44100
Precision : 16-bit
Duration : 00:08:51.21 = 23426185 samples = 39840.5 CDDA sectors
File Size : 21.3M
Bit Rate : 321k
Sample Encoding: MPEG audio (layer I, II or III)
Comments :
Title=Verrá la more e avrá i tuoi occhi
Artist=Diamanda Galás
Album=At Saint Thomas the Apostle Harlem
Tracknumber=1/8
Year=2017
Genre=Avantgarde, Experimental, Electronic, Rock



Register


Go to the top of the page
  Insert nick Quick quote
+Quote Post
 
Start new topic
Replies (1 - 5)
post Jan 14 2020, 10:37:10
Post #2

Правь статус, ####!111
**************
Group: Металариец
Posts: 44,929
Releases: 694
On Forums: 10 years 7 months
Thanks: 36434 time(s)
Russian Federation


Уникальный исполнитель.

Был на концерте в 2003 году - незабываемо.

Ждем нового материала. (IMG:style_emoticons/default/pray.gif)

Go to the top of the page
  Insert nick Quick quote
+Quote Post
post Jan 14 2020, 13:11:27
Post #3

Forever Underground
**************
Group: Металариец
Posts: 6,449
Releases: 0
On Forums: 4 years 9 months
Thanks: 7650 time(s)
Unknown


QUOTE(vosmidesijatye @ Jan 14 2020, 10:37:10) *
Ждем нового материала

I'm wishing for a working link, instead... (IMG:style_emoticons/default/smile2.gif)
Go to the top of the page
  Insert nick Quick quote
+Quote Post
post Jan 14 2020, 13:33:45
Post #4

Правь статус, ####!111
**************
Group: Металариец
Posts: 44,929
Releases: 694
On Forums: 10 years 7 months
Thanks: 36434 time(s)
Russian Federation


ЦИТАТА(thenecromancer @ Jan 14 2020, 15:11:27) *
I'm wishing for a working link, instead... (IMG:style_emoticons/default/smile2.gif)


Will do it later tonight.
Go to the top of the page
  Insert nick Quick quote
+Quote Post
post Jan 14 2020, 15:34:14
Post #5

Forever Underground
**************
Group: Металариец
Posts: 6,449
Releases: 0
On Forums: 4 years 9 months
Thanks: 7650 time(s)
Unknown


QUOTE(vosmidesijatye @ Jan 14 2020, 13:33:45) *
Will do it later

(IMG:style_emoticons/default/27.gif)
Go to the top of the page
  Insert nick Quick quote
+Quote Post
post Jan 14 2020, 18:40:32
Post #6

Правь статус, ####!111
**************
Group: Металариец
Posts: 44,929
Releases: 694
On Forums: 10 years 7 months
Thanks: 36434 time(s)
Russian Federation


@320

Register


FLAC

Register


Thanks:
Go to the top of the page
  Insert nick Quick quote
+Quote Post

Reply to this topicStart new topic
2 User(s) are reading this topic (2 Guests and 0 Anonymous Users)
0 Members:

 



- Lo-Fi Version Support form
Copyrights and abuse reports form
Time is now: 24th January 2020 - 00:26:22