Welcome Guest ( Log In | Register )

> Sidë Effects - Expedition (2019), Progressive Heavy/Power Metal
post Jul 1 2019, 01:26:39
Post #1

Правь статус, ####!111
**************
Group: Металариец
Posts: 25,807
Releases: 18479
From: Г.Харьков
On Forums: 8 years 11 months
Thanks: 365079 time(s)
Unknown


(IMG:https://metalarea.org/images/audiocovers/2019_Jul/acov_tid323745_thumb.jpg)

*Artist: Sidë Effects
*Album: Expedition
*Year: 2019
*Genre: Progressive Heavy/Power Metal
*Country: Greece (IMG:https://metalarea.org/forum/style_images/flags/Greece.png)
*Format: mp3@CBR320kbps
*Size: 94MB

Tracklist:
1. Exordium 01:03
2. Into the Sea 03:42
3. The Island of Phaeacians 03:36
4. Expedition 08:38
5. Light on My Steel 06:25
6. For Love and Land 10:01
7. Ithaca 02:50
8. Fields of Stone 02:41
9. Sidë Effects 05:51
******************************
Total playing time: 44:47



Extended info
George Nidriotis Bass (2017-present)
See also: Kinetic, ex-Apparently Dead
Chris Bouvis Drums (2017-present)
Andreas Zografidis Guitars (2017-present)
See also: ex-Air Winners, ex-Zero Hour, Looking for Something, ex-On Thorns I Lay (live)
Kostas Grammenos Guitars (2017-present)
See also: ex-Outcry, ex-Crystal Winds, ex-Adventure
Tasos Lazaris Vocals, Guitars (acoustic) (2018-present)
See also: Erase, Fortress Under Siege, Ghost Season, Hyperfuel



Technical info
(IMG:https://metalarea.org/images/spectrogram/2019_Jul/f09aa1f166dd36ca8e9e078852b70485.png)
Input File: 04. Expedition.mp3
Channels : 2
Sample Rate : 44100
Precision : 16-bit
Duration : 00:08:38.61 = 22870877 samples = 38896 CDDA sectors
File Size : 20.8M
Bit Rate : 321k
Sample Encoding: MPEG audio (layer I, II or III)
Comments :
Title=Expedition
Artist=Sidë Effects
Album=Expedition
Tracknumber=4/9
Year=2019
Discnumber=1/1



Register


Go to the top of the page
  Insert nick Quick quote
+Quote Post
 
Start new topic
Replies (1 - 8)
post Jul 1 2019, 07:59:01
Post #2

MDM-Thrash Metal
**************
Group: Металариец
Posts: 10,285
Releases: 1221
From: Одесса
On Forums: 13 years 8 months
Thanks: 29885 time(s)
Ukraine


Go to the top of the page
  Insert nick Quick quote
+Quote Post
post Jul 1 2019, 12:36:54
Post #3

21st Century Schizoid Man
**************
Group: Металариец
Posts: 6,774
Releases: 82
From: Moscow
On Forums: 12 years 11 months
Thanks: 5697 time(s)
Russian Federation


Крутое превью.


Thanks:
Go to the top of the page
  Insert nick Quick quote
+Quote Post
post Jul 1 2019, 17:39:53
Post #4

Два Литра
**
Group: Завсегдатай
Posts: 151
Releases: 0
On Forums: 13 years 3 months
Thanks: 17 time(s)
Russian Federation


Iron Maiden


Thanks:
(1) Herrant,
Go to the top of the page
  Insert nick Quick quote
+Quote Post
post Jul 4 2019, 16:58:11
Post #5

MDM-Thrash Metal
**************
Group: Металариец
Posts: 10,285
Releases: 1221
From: Одесса
On Forums: 13 years 8 months
Thanks: 29885 time(s)
Ukraine


Кстати, а альбом то очень симпатишным получился у греков!
Go to the top of the page
  Insert nick Quick quote
+Quote Post
post Jul 6 2019, 08:28:30
Post #6

Шесть Литров
******
Group: Металариец
Posts: 636
Releases: 0
On Forums: 11 years 9 months
Thanks: 158 time(s)
Ukraine


Влияние Айрон Мэйден очевидно а также Америкосов Steel Prophet-классный альбом!!
Go to the top of the page
  Insert nick Quick quote
+Quote Post
post Jul 6 2019, 19:05:04
Post #7

21st Century Schizoid Man
**************
Group: Металариец
Posts: 6,774
Releases: 82
From: Moscow
On Forums: 12 years 11 months
Thanks: 5697 time(s)
Russian Federation


Отличный альбом!
Go to the top of the page
  Insert nick Quick quote
+Quote Post
post Jul 14 2019, 08:28:37
Post #8

ухо-горло-нос
********
Group: Металариец
Posts: 806
Releases: 0
From: Севастополь
On Forums: 10 years 7 months
Thanks: 376 time(s)
Russian Federation


Действительно круто!
Go to the top of the page
  Insert nick Quick quote
+Quote Post
post Jul 21 2019, 13:42:48
Post #9

Ъ
**************
Group: Металариец
Posts: 10,573
Releases: 9
On Forums: 12 years 3 months
Thanks: 2161 time(s)
Sweden


Мне только на раз для разнообразия вканало, на что то большее альбом не подошел.
Go to the top of the page
  Insert nick Quick quote
+Quote Post

Reply to this topicStart new topic
2 User(s) are reading this topic (2 Guests and 0 Anonymous Users)
0 Members:

 



- Lo-Fi Version Support form
Copyrights and abuse reports form
Time is now: 21st April 2021 - 14:09:43